imdb
rating

8.4
Double Indemnity

Double Indemnity (1944)

Drama, Mystery, Thriller

Full description
quality   dvdrip dvdr x264 hdtv hd bd fullhd

Double Indemnity 1944 HDTV 720p x264 AAC - PRiSTiNE [P2PDL]

Size 511.069 MB   33 seeders     Added 2013-02-01 15:58:25

Stream torrent
Starting‥ You need BitLord! Get it from BitLord.com
To download or stream you need BitLord. Visit them at BitLord.com
[img]image[/img]


[b]Double Indemnity 1944 HDTVRip 720p x264 AAC - PRiSTiNE [P2PDL][/b]
[code]				
Genre: Crime | Drama | Film-Noir | Thriller
An insurance rep lets himself be talked into a murder/insurance fraud scheme that arouses an insurance investigator's suspicions.
Director: Billy Wilder
Stars: Fred MacMurray, Barbara Stanwyck, Edward G. Robinson
Rated: N/A[/code]

[url=http://www.imdb.com/title/tt0036775/]IMDB[/url]
[url=http://www.rottentomatoes.com/m/double_indemnity/]Rotten Tomatoes[/url]
[url=https://www.youtube.com/watch?v=S3wjJcuGsVE]Trailer[/url]

[code]General
Format : MPEG-4
Format profile : Base Media / Version 2
Codec ID : mp42
File size : 480 MiB
Duration : 1h 43mn
Overall bit rate mode : Variable
Overall bit rate : 651 Kbps
Movie name : Double Indemnity 1944 HDTVRip 720p x264 AAC - PRiSTiNE [P2PDL]

Source : 720p.HDTV.x264-x0r (Thanks)

Video
Format : AVC
Width : 960 pixels
Height : 720 pixels
Display aspect ratio : 4:3
Frame rate mode : Variable
Frame rate : 25.000 fps
Stream size : 406 MiB (84%)
Writing library : x264 core 128

Audio
Format : AAC
Bit rate : 96.0 Kbps
Sampling rate : 48.0 KHz
Stream size : 70.9 MiB (15%)
Language : English

Subtitle : Yes [Muxed]( English)[/code]


Screens:

[img]image[/img]
[img]image[/img]
[img]image[/img]
[img]image[/img]
[img]image[/img]


Thumbs:

[img]image[/img]

[img]image[/img]
----------------------------------------------------------------------------------------------------


[code]Recommend to you to use latest version of VLC player. Install K-Lite Codec Pack or shark007 codecs
in case of any kind of problem in playback (For non-VLC Media Player users). Alternatively, install
Core AVC codecs, the fastest decoder that there is coupled with Community Center Codec Pack and play
on Windows Media Player Classic. Check sample to be sure.
Enjoy!

Greets to: VYTO, a2zRG, MusiK_KinG, Neon, Kuroyukihime, TorDigger, Ash968, StyLishSaLH and staff members at
ExtraTorrent, TPB, H33T, KAT, 1337x, PublicHD, Ahashare, BTScene, SilverTorrent, LimeTorrents, TorrentMafia,
P2PDL, and all others.

Encoder Notes: Looking For Early Access To Anything You Can Provide DVDScr, R5, DVDR, BluRay, Direct
Audio, Early Music Releases, Seedboxes, Dedicated Servers anything u can provide, Advance / Promo CDs/
DVDs. If You Got anything to offer contact me at "prg@hush.com".[/code]

[URL=http://www.facebook.com/p2pdl][IMG]image[/IMG][/URL]
Cover, Preview, Screenshots/1.jpg 99.928 KB
Cover, Preview, Screenshots/2.jpg 92.428 KB
Cover, Preview, Screenshots/3.jpg 62.866 KB
Gathering some info...

Register and log in Isohunt and see no captcha anymore!

4000 symbols left
Hash C30636AE6CEAB852251A809673DE7DBFE0F749FE

Related torrents for "Double Indemnity 1944 HDTV 720p x264 AAC - PRiSTiNE [P2PDL]"

Torrent search:

1944 x264 hdtv hd