Beautiful People

Beautiful People (2005)

Drama, Soaps

Full description

Beautiful People S01 MP4 x264 AAC BRrip [Pioneer]

Size 1.888 GB   0 seeders     Added 2013-02-01 21:02:37

Stream torrent
Starting‥ You need BitLord! Get it from BitLord.com
To download or stream you need BitLord. Visit them at BitLord.com
[IMG]image[/IMG]


Simon's life growing up in 90's Reading is as crazy as ever as he continues to endure the barmy fantasies of his mum, Debbie, the Greenham Common nostalgia of blind Aunty Hayley, school bullies and the jibes of his sister, Shaznay/Ashlene. Luckily for Simon, his best friend Kylie shares his mission to escape suburbia and live amongst the glitz & glamour of 'the beautiful people'.

Starring: Olivia Coleman, Meera Syal, Aidan McArdle, Luke Ward Wilkinson


http://www.imdb.com/title/tt1246607/

http://www.youtube.com/watch?v=8KIs60BZDjw

[IMG]image[/IMG]
[IMG]image[/IMG]
[IMG]image[/IMG]
[IMG]image[/IMG]
[IMG]image[/IMG]
[IMG]image[/IMG]



General
Complete name: D:\Beautiful People S01 MP4 x264 AAC BRrip [Pioneer]
Format: MPEG-4
Format profile: Base Media / Version 2
Codec ID: mp42
File size: 296 MiB
Duration: 28mn 18s
Overall bit rate mode: Variable
Overall bit rate: 1 464 Kbps
Encoded date: UTC 2013-01-27 18:00:59
Tagged date: UTC 2013-01-27 18:20:51
Writing application: HandBrake 0.9.8 2012071700

Video
ID: 1
Format: AVC
Format/Info: Advanced Video Codec
Format profile: High@L3.0
Format settings, CABAC: Yes
Format settings, ReFrames: 4 frames
Codec ID: avc1
Codec ID/Info: Advanced Video Coding
Duration: 28mn 18s
Bit rate mode: Variable
Bit rate: 1 300 Kbps
Width: 720 pixels
Height: 400 pixels
Display aspect ratio: 16:9
Frame rate mode: Constant
Frame rate: 25.000 fps
Color space: YUV
Chroma subsampling: 4:2:0
Bit depth: 8 bits
Scan type: Progressive
Bits/(Pixel*Frame): 0.181
Stream size: 263 MiB (89%)
Writing library: x264 core 120
Encoded date: UTC 2013-01-27 18:00:59
Tagged date : UTC 2013-01-27 18:20:50
Color primaries: BT.709
Transfer characteristics: BT.709
Matrix coefficients: BT.709

Audio
ID: 2
Format: AAC
Format/Info: Advanced Audio Codec
Format profile: LC
Codec ID: 40
Duration: 28mn 18s
Bit rate mode: Variable
Bit rate: 160 Kbps
Maximum bit rate: 197 Kbps
Channel(s): 2 channels
Channel positions: Front: L R
Sampling rate: 48.0 KHz
Compression mode: Lossy
Delay relative to video: 80ms
Stream size: 32.4 MiB (11%)
Encoded date: UTC 2013-01-27 18:00:59
Tagged date: UTC 2013-01-27 18:20:50
Beautiful People S01 E01 MP4 x264 AAC BRrip [Pioneer].mp4 314.515 MB
Beautiful People S01 E02 MP4 x264 AAC BRrip [Pioneer].mp4 310.875 MB
Beautiful People S01 E03 MP4 x264 AAC BRrip [Pioneer].mp4 304.561 MB
Gathering some info...

Register and log in Isohunt and see no captcha anymore!

4000 symbols left
Hash 1FA5ACB20D42EFEF29985BEAEAECB3CFD4D8D768

Related torrents for "Beautiful People S01 MP4 x264 AAC BRrip [Pioneer]"

Torrent search:

season 01 x264 bd