imdb
rating

 
Pitch

Pitch (2016)

Drama

Full description

Pitch Perfect 2012 DVDRip

Size 676.043 MB   238 seeders     Added 2013-02-02 02:22:43

Stream torrent
Starting‥ You need BitLord! Get it from 1BitLord.com
To download or stream you need BitLord. Visit them at BitLord.com
IMDb : http://www.imdb.com/title/tt1981677

Language : English

Screens : 
image

Info:
Format : MPEG-4
Format profile : Base Media / Version 2
Codec ID : mp42
File size : 326 MiB
Duration : 57mn 36s
Overall bit rate mode : Variable
Overall bit rate : 790 Kbps
Encoded date : UTC 2013-02-01 17:23:18
Tagged date : UTC 2013-02-01 17:28:36
Writing application : HandBrake 0.9.8 2012071700

Video
ID : 1
Format : AVC
Format/Info : Advanced Video Codec
Format profile : Main@L2.2
Format settings, CABAC : Yes
Format settings, ReFrames : 4 frames
Codec ID : avc1
Codec ID/Info : Advanced Video Coding
Duration : 57mn 36s
Bit rate mode : Variable
Bit rate : 625 Kbps
Width : 624 pixels
Height : 336 pixels
Display aspect ratio : 1.85:1
Frame rate mode : Variable
Frame rate : 23.976 fps
Minimum frame rate : 23.974 fps
Maximum frame rate : 90 000.000 fps
Color space : YUV
Chroma subsampling : 4:2:0
Bit depth : 8 bits
Scan type : Progressive
Bits/(Pixel*Frame) : 0.124
Stream size : 258 MiB (79%)
Writing library : x264 core 120
Encoding settings : cabac=1 / ref=1 / deblock=1:0:0 / analyse=0x1:0x111 / me=hex / subme=2 / psy=1 / psy_rd=1.00:0.00 / mixed_ref=0 / me_range=16 / chroma_me=1 / trellis=0 / 8x8dct=0 / cqm=0 / deadzone=21,11 / fast_pskip=1 / chroma_qp_offset=0 / threads=6 / sliced_threads=0 / nr=0 / decimate=1 / interlaced=0 / bluray_compat=0 / constrained_intra=0 / bframes=3 / b_pyramid=2 / b_adapt=1 / b_bias=0 / direct=1 / weightb=1 / open_gop=0 / weightp=1 / keyint=240 / keyint_min=24 / scenecut=40 / intra_refresh=0 / rc_lookahead=10 / rc=crf / mbtree=1 / crf=20.0 / qcomp=0.60 / qpmin=3 / qpmax=69 / qpstep=4 / ip_ratio=1.40 / aq=1:1.00
Encoded date : UTC 2013-02-01 17:23:18
Tagged date : UTC 2013-02-01 17:28:36
Color primaries : BT.601 NTSC
Transfer characteristics : BT.709
Matrix coefficients : BT.601

Audio
ID : 2
Format : AAC
Format/Info : Advanced Audio Codec
Format profile : LC
Codec ID : 40
Duration : 57mn 36s
Bit rate mode : Variable
Bit rate : 160 Kbps
Maximum bit rate : 321 Kbps
Channel(s) : 2 channels
Channel positions : Front: L R
Sampling rate : 48.0 KHz
Compression mode : Lossy
Delay relative to video : 83ms
Stream size : 65.9 MiB (20%)
Encoded date : UTC 2013-02-01 17:23:18
Tagged date : UTC 2013-02-01 17:28:36


Piczend.com Free Image Hosting.txt 0 B
Pitch Perfect 2012 DVDRip - A.mp4 341.53 MB
Pitch Perfect 2012 DVDRip -B.mp4 334.513 MB
Gathering some info...

Register and log in Isohunt and see no captcha anymore!

4000 symbols left
Hash 622FE7E35BD4B6FCA83BAD74F21DCB223DE4DAA0

Related torrents for "Pitch Perfect 2012 DVDRip"

Torrent search:

dvdrip 2012