Jawan Of Vellimala (2012) DVDRip XviD ESubs 1xCD [DDR]

Size 738.511 MB   6 seeders     Added 2013-02-02 03:41:27

Stream torrent
Starting‥ You need BitLord! Get it from BitLord.com
To download or stream you need BitLord. Visit them at BitLord.com


Jawan Of Vellimala (2012)
**DVDRip XviD ESubs 1xCD [DDR]**



[ INFO ]
Code: Source : DVD 9 [DDR] Ripper : SRK Complete name : Jawan Of Vellimala (2012) DVDRip XviD ESubs 1xCD [DDR].avi Format : AVI Format/Info : Audio Video Interleave File size : 696 MiB Duration : 2h 7mn Overall bit rate : 763 Kbps Writing application : VirtualDubMod 1.5.10.2 (build 2540/release) Writing library : VirtualDubMod build 2540/release Video ID : 0 Format : MPEG-4 Visual Format profile : Advanced Simple@L5 Format settings, BVOP : 2 Format settings, QPel : No Format settings, GMC : No warppoints Format settings, Matrix : Default (H.263) Codec ID : XVID Codec ID/Hint : XviD Duration : 2h 7mn Bit rate : 673 Kbps Width : 608 pixels Height : 256 pixels Display aspect ratio : 2.40:1 Frame rate : 23.976 fps Color space : YUV Chroma subsampling : 4:2:0 Bit depth : 8 bits Scan type : Progressive Compression mode : Lossy Bits/(Pixel*Frame) : 0.180 Stream size : 615 MiB (88%) Writing library : XviD 1.2.1 (UTC 2008-12-04) Audio ID : 1 Format : MPEG Audio Format version : Version 1 Format profile : Layer 3 Mode : Joint stereo Mode extension : MS Stereo Codec ID : 55 Codec ID/Hint : MP3 Duration : 2h 7mn Bit rate mode : Constant Bit rate : 80.0 Kbps Channel(s) : 2 channels Sampling rate : 32.0 KHz Compression mode : Lossy Stream size : 73.0 MiB (10%) Alignment : Aligned on interleaves Interleave, duration : 42 ms (1.00 video frame) Interleave, preload duration : 504 ms Writing library : LAME3.99r Encoding settings : -m j -V 4 -q 2 -lowpass 13.5 -b 80
[ SCREENS ]

























-Sample Included-

*Indirect Seeding*
Jawan Of Vellimala (2012) DVDRip XviD ESubs 1xCD [DDR].avi 730.175 MB
Jawan Of Vellimala (2012) DVDRip XviD ESubs 1xCD [DDR].nfo 2.944 KB
Jawan Of Vellimala (2012) DVDRip XviD ESubs 1xCD [DDR].srt 111.266 KB
Gathering some info...

Register and log in Isohunt and see no captcha anymore!

4000 symbols left
Hash 9695F86F7B791C635533164ADED08C5E65513674