imdb
rating

8.0
The Perks of Being a Wallflower

The Perks of Being a Wallflower (2012)

Drama, Romance

Full description
quality   hd bd dvdrip x264 cam

The Perks of Being a Wallflower 2012 BRRip English [Accipiter]

Size 727.257 MB   13 seeders     Added 2013-02-02 03:54:05

Stream torrent
Starting‥ You need BitLord! Get it from 1BitLord.com
To download or stream you need BitLord. Visit them at BitLord.com
[img]image[/img]

[b]Cover:[/b]

[img]image[/img]

[b]Release info:[/b]

[code]General
Format : Matroska
Format version : Version 4 / Version 2
File size : 694 MiB
Duration : 1h 42mn
Overall bit rate mode : Variable
Overall bit rate : 944 Kbps

Video
ID : 1
Format : MPEG-4 Visual
Format profile : Advanced Simple@L5
Format settings, BVOP : Yes
Format settings, QPel : No
Format settings, GMC : No warppoints
Format settings, Matrix : Default (H.263)
Codec ID : V_MS/VFW/FOURCC / XVID
Codec ID/Hint : XviD
Duration : 1h 42mn
Bit rate : 798 Kbps
Width : 624 pixels
Height : 352 pixels
Display aspect ratio : 16:9
Frame rate mode : Constant
Frame rate : 23.976 fps
Color space : YUV
Chroma subsampling : 4:2:0
Bit depth : 8 bits
Scan type : Progressive
Compression mode : Lossy
Bits/(Pixel*Frame) : 0.151
Stream size : 586 MiB (84%)
Language : English
Default : Yes
Forced : No

Audio
ID : 2
Format : MPEG Audio
Format version : Version 1
Format profile : Layer 3
Mode : Joint stereo
Mode extension : MS Stereo
Codec ID : A_MPEG/L3
Codec ID/Hint : MP3
Duration : 1h 37mn
Bit rate mode : Variable
Bit rate : 128 Kbps
Channel(s) : 2 channels
Sampling rate : 48.0 KHz
Compression mode : Lossy
Stream size : 89.6 MiB (13%)
Language : English
Default : Yes
Forced : No



Source:
credit to original movie ripper SPARKS (Thanks)[/code]

[b]IMDB Info:[/b]

[code]An introvert freshman is taken under the wings of two seniors who welcome him to the real world.

Director: Stephen Chbosky
Writers: Stephen Chbosky (screenplay), Stephen Chbosky (based on his book)
Stars: Logan Lerman, Emma Watson, Ezra Miller

Genres: Drama | Romance[/code]

http://www.imdb.com/title/tt1659337/

[b]Screen Shot:[/b]

[img]image[/img]
[img]image[/img]
[img]image[/img]
[img]image[/img]
The Perks of Being a Wallflower 2012 BRRip English [Accipiter].mkv 727.255 MB
Torrent Downloaded From Digtorrent.org.txt 346 B
Torrent Downloaded From DivXHunt.tk.nfo 2.281 KB
Gathering some info...

Register and log in Isohunt and see no captcha anymore!

4000 symbols left
Hash 2E85B9355EB3C6ED1A60387202607F6B0650D19B

Related torrents for "The Perks of Being a Wallflower 2012 BRRip English [Accipiter]"

Torrent search:

english 2012 bd