imdb
rating

7.8
Skyfall

Skyfall (2012)

Action, Adventure, Thriller

Full description

Skyfall 2012 BRRip English [Accipiter]

Size 724.544 MB   2 seeders     Added 2013-02-02 03:54:10

Stream torrent
Starting‥ You need BitLord! Get it from BitLord.com
To download or stream you need BitLord. Visit them at BitLord.com
[img]image[/img]

[b]Cover:[/b]

[img]image[/img]

[b]Release info:[/b]

[code]General
Format : Matroska
Format version : Version 4 / Version 2
File size : 691 MiB
Duration : 2h 23mn
Overall bit rate : 675 Kbps

Video
ID : 1
Format : MPEG-4 Visual
Codec ID/Hint : XviD
Duration : 2h 23mn
Bit rate : 565 Kbps
Width : 662 pixels
Height : 256 pixels
Display aspect ratio : 2.40:1
Frame rate mode : Constant
Frame rate : 23.976 fps
Color space : YUV
Chroma subsampling : 4:2:0
Bit depth : 8 bits
Scan type : Progressive
Compression mode : Lossy
Bits/(Pixel*Frame) : 0.151
Stream size : 579 MiB (84%)
Language : English
Default : Yes
Forced : No

Audio
ID : 2
Format : MPEG Audio
Format version : Version 1
Format profile : Layer 3
Mode : Joint stereo
Mode extension : MS Stereo
Codec ID : A_MPEG/L3
Codec ID/Hint : MP3
Duration : 2h 23mn
Bit rate mode : Constant
Bit rate : 96.0 Kbps
Channel(s) : 2 channels
Sampling rate : 48.0 KHz
Compression mode : Lossy
Stream size : 98.3 MiB (14%)
Language : English
Default : Yes
Forced : No



Source:
credit to original movie ripper 1MPERiUM (Thanks)[/code]

[b]IMDB Info:[/b]

[code]Bond's loyalty to M is tested when her past comes back to haunt her. Whilst MI6 comes under attack, 007 must track down and destroy the threat, no matter how personal the cost.

Director: Sam Mendes
Writers: Neal Purvis, Robert Wade, 
Stars: Daniel Craig, Javier Bardem, Naomie Harris

Genres: Action | Adventure | Crime | Thriller[/code]

http://www.imdb.com/title/tt1074638/

[b]Screen Shot:[/b]

[img]image[/img]
[img]image[/img]
[img]image[/img]
[img]image[/img]
[img]image[/img]
Skyfall 2012 BRRip English [Accipiter].mkv 724.542 MB
Torrent Downloaded From Digtorrent.org.txt 346 B
Torrent Downloaded From DivXHunt.tk.nfo 2.281 KB
Gathering some info...

Register and log in Isohunt and see no captcha anymore!

4000 symbols left
Hash 70999B537EBCA4004970210CC2648FB095D6F6F3

Related torrents for "Skyfall 2012 BRRip English [Accipiter]"

Torrent search:

english 2012 bd