imdb
rating

7.9
The Ten Commandments

The Ten Commandments (1956)

Drama, History

Full description
quality   dvdrip x264 bd hd fullhd

The Ten Commandments (1956) [BDRip.x264-AC3][Napisy PL][Eng]

Size 3.434 GB   0 seeders     Added 2013-02-02 15:00:48

Stream torrent
Starting‥ You need BitLord! Get it from BitLord.com
To download or stream you need BitLord. Visit them at BitLord.com
[center][img]image[/img]

[i][b]Very Please help in Seeding. THX.[/b][/i] 

czas trwania: 3 godz. 40 min.
gatunek: Biblijny
premiera: 5 października 1956 (świat) 1956-10-05
produkcja: USA
reżyseria: Cecil B. DeMille
scenariusz: Aeneas MacKenzie, Fredric M. Frank
muzyka:Elmer Bernstein
zdjęcia:Loyal Griggs

Opis Filmu:

The Egyptian Prince, Moses, learns of his true heritage as
a Hebrew and his divine mission as the deliverer of his people.

Opowiedziana z wielką pompą superprodukcja na podstawie
Pisma Świętego. Oto naród żydowski jest w niewoli egipskiej,
lecz Bóg zsyła na ziemię swojego sługę Mojżesza. Cudem
uratowany i wychowany u boku przyszłego Faraona, musi
opuścić Egipt. Dopiero sam Bóg każe mu tam wrócić i uwolnić
Izraelitów z niewoli. Mojżesz zwraca się z prośbą o
uwolnienie Żydów, lecz gdy to nie skutkuje, zsyła na Egipt
siedem plag. Wyprowadza Żydów z Egiptu, ku ziemi obiecanej.

Subtitles: [url="http://www.subtitleseeker.com/0049833/The+Ten+Commandments/Subtitles/?page=2"]http://www.subtitleseeker.com/0049833/The+Ten+Commandments/Subtitles/?page=2[/url]

[img]image[/img]
[img]image[/img]
[img]image[/img]
[img]image[/img]

Obsada:

Charlton Heston Mojżesz
Yul Brynner Faraon Ramses
Anne Baxter Nefretiri
Debra Paget Lilia
Yvonne De Carlo Sefora

Dane Techniczne:

The Ten Commandments (1956) - alE13.mkv
Format : Matroska
File size : 3.18 GiB
Duration : 3h 51mn
Overall bit rate : 1 966 Kbps
Movie name : The Ten Commandments (1956) - alE13
Encoded date : UTC 2012-12-17 11:19:25
Writing application : mkvmerge v5.8.0
Writing library : libebml v1.2.3 + libmatroska v1.3.0

Video
ID : 1
Format : AVC
Format/Info : Advanced Video Codec
Format profile : Main@L3.1
Format settings, CABAC : Yes
Format settings, ReFrames : 2 frames
Muxing mode : Container profile=Unknown@3.1
Codec ID : V_MPEG4/ISO/AVC
Duration : 3h 51mn
Bit rate : 1 470 Kbps
Width : 1 280 pixels
Height : 720 pixels
Display aspect ratio : 16:9
Frame rate mode : Variable
Frame rate : 24.000 fps
Color space : YUV
Chroma subsampling : 4:2:0
Bit depth : 8 bits
Scan type : Progressive
Bits/(Pixel*Frame) : 0.066
Stream size : 2.29 GiB (72%)
Writing library : x264 core 112 r1834 a51816a

Audio
ID : 2
Format : AC-3
Format/Info : Audio Coding 3
Mode extension : CM (complete main)
Muxing mode : Header stripping
Codec ID : A_AC3
Duration : 3h 51mn
Bit rate mode : Constant
Bit rate : 512 Kbps
Channel(s) : 6 channels
Channel positions : Front: L C R, Side: L R, LFE
Sampling rate : 48.0 KHz
Bit depth : 16 bits
Stream size : 848 MiB (26%)

Text #1
ID : 3
Format : UTF-8
Codec ID : S_TEXT/UTF8
Codec ID/Info : UTF-8 Plain Text

Text #2
ID : 4
Format : VobSub
Codec ID : S_VOBSUB
Codec ID/Info : The same subtitle format used on DVDs
Language : Polish[/center]
1.jpg 93.888 KB
2.jpg 148.725 KB
Nostalgie 22.jpg 192.808 KB
Gathering some info...

Register and log in Isohunt and see no captcha anymore!

4000 symbols left
Hash E06EF9D38491166CB01E0D358097F75E0690F7CA

Related torrents for "The Ten Commandments (1956) [BDRip.x264-AC3][Napisy PL][Eng]"

Torrent search:

english x264 1956 bd