AkaashVani (2013) DVDScr x264

Size 508.145 MB   0 seeders     Added 2013-02-02 16:40:44

Stream torrent
Starting‥ You need BitLord! Get it from 1BitLord.com
To download or stream you need BitLord. Visit them at BitLord.com
[code]General
Complete name : AkaashVani (2013) DVDScr x264.avi
Format : AVI
File size : 485 MiB
Duration : 2h 14mn
Overall bit rate : 504 Kbps

Video
Format : AVC
Format/Info : Advanced Video Codec
Format profile : High@L2.1
Format settings, CABAC : Yes
Format settings, ReFrames : 4 frames
Codec ID : 7
Duration : 2h 14mn
Bit rate : 400 Kbps
Width : 624 pixels
Height : 272 pixels
Display aspect ratio : 2.25:1
Frame rate mode : Constant
Frame rate : 23.976 fps
Color space : YUV
Chroma subsampling : 4:2:0
Bit depth : 8 bits
Scan type : Progressive
Bits/(Pixel*Frame) : 0.098
Stream size : 386 MiB (80%)
Writing library : x264 core 125 r2200 999b753

Audio
Format : AAC
Format/Info : Advanced Audio Codec
Format profile : LC
Codec ID : 10
Duration : 2h 14mn
Bit rate : 94.4 Kbps
Channel(s) : 2 channels
Channel positions : Front: L R
Sampling rate : 44.1 KHz
Compression mode : Lossy
Delay relative to video : 19ms
Stream size : 96.7 MiB (20%)[/code]
AkaashVani (2013) DVDScr x264.avi 508.144 MB
Info.txt 1.645 KB
Gathering some info...

Register and log in Isohunt and see no captcha anymore!

4000 symbols left
Hash 0866DA4CAFB5E95BB07D7DB119039456EBF05D8F

Related torrents for "AkaashVani (2013) DVDScr x264"

Torrent search:

screener x264 2013