Adventure

Adventure (1953)

Adventure

Full description

Sammys Adventure A Turtles Tale 2010 PROPER 1080p x264 DTS Shadoe mkv

Size 8.01 GB   4 seeders     Added 2013-02-02 19:40:38

Stream torrent
Starting‥ You need BitLord! Get it from BitLord.com
To download or stream you need BitLord. Visit them at BitLord.com
So I looked all over the place for a 1080p copy of this with English sound. When I finally found it I was just disappointed to hear that it was British English, so I found the American English DVD and ripped the DTS audio from it. This is now the PROPER, as last release had issues with the sound. I also re-synced and edited the subtitles to match the American English version. This release has American English sound, with subtitles, and a Polish language track for my peoples. Hope you enjoy and seed if you download:)
For those interested, here's the MediaInfo:
General
Unique ID : 182653315374668391062407090732587946086 (0x8969BFBB544B8C1D822E11C0A7DA1066)
Complete name : C:\Users\Jerry Shadoe\Videos\A.Turtles.Tale.Sammys.Adventure.2010.1080p.BluRay.X264-AVCHD\Sammys.Adventure.A.Turtles.Tale.2010.PROPER.1080p.x264.DTS.Shadoe.mkv
Format : Matroska
Format version : Version 2
File size : 7.46 GiB
Duration : 1h 25mn
Overall bit rate : 12.5 Mbps
Movie name : Sammys.Adventure.A.Turtles.Tale.2010.PROPER.1080p.x264.DTS.Shadoe
Encoded date : UTC 2013-01-02 10:16:47
Writing application : mkvmerge v2.9.8 ('C'est le bon') built on Aug 13 2009 12:49:06
Writing library : libebml v0.7.7 + libmatroska v0.8.1

Video
ID : 1
Format : AVC
Format/Info : Advanced Video Codec
Format profile : High@L4.1
Format settings, CABAC : Yes
Format settings, ReFrames : 4 frames
Format settings, GOP : M=4, N=32
Codec ID : V_MPEG4/ISO/AVC
Duration : 1h 25mn
Bit rate : 9 439 Kbps
Width : 1 920 pixels
Height : 1 080 pixels
Display aspect ratio : 16:9
Frame rate : 23.976 fps
Color space : YUV
Chroma subsampling : 4:2:0
Bit depth : 8 bits
Scan type : Progressive
Bits/(Pixel*Frame) : 0.190
Stream size : 5.50 GiB (74%)
Title : Sammys.Adventure.A.Turtles.Tale.2010.PROPER.1080p.x264.DTS.Shadoe
Writing library : x264 core 116 r2019 9cc407d
Encoding settings : cabac=1 / ref=4 / deblock=1:0:0 / analyse=0x3:0x133 / me=umh / subme=7 / psy=1 / psy_rd=1.00:0.00 / mixed_ref=1 / me_range=16 / chroma_me=1 / trellis=1 / 8x8dct=1 / cqm=0 / deadzone=21,11 / fast_pskip=0 / chroma_qp_offset=-2 / threads=12 / sliced_threads=0 / nr=0 / decimate=1 / interlaced=0 / bluray_compat=0 / constrained_intra=0 / bframes=3 / b_pyramid=2 / b_adapt=1 / b_bias=0 / direct=1 / weightb=1 / open_gop=0 / weightp=2 / keyint=250 / keyint_min=23 / scenecut=40 / intra_refresh=0 / rc_lookahead=40 / rc=2pass / mbtree=1 / bitrate=9439 / ratetol=1.0 / qcomp=0.60 / qpmin=0 / qpmax=69 / qpstep=4 / cplxblur=20.0 / qblur=0.5 / ip_ratio=1.40 / aq=1:1.00
Language : English

Audio #1
ID : 2
Format : DTS
Format/Info : Digital Theater Systems
Codec ID : A_DTS
Duration : 1h 25mn
Bit rate mode : Constant
Bit rate : 1 510 Kbps
Channel(s) : 6 channels
Channel positions : Front: L C R, Side: L R, LFE
Sampling rate : 48.0 KHz
Bit depth : 24 bits
Compression mode : Lossy
Stream size : 926 MiB (12%)
Title : Sammys.Adventure.A.Turtles.Tale.2010.PROPER.1080p.x264.DTS.Shadoe
Language : English

Audio #2
ID : 3
Format : DTS
Format/Info : Digital Theater Systems
Codec ID : A_DTS
Duration : 1h 25mn
Bit rate mode : Constant
Bit rate : 1 510 Kbps
Channel(s) : 6 channels
Channel positions : Front: L C R, Side: L R, LFE
Sampling rate : 48.0 KHz
Bit depth : 24 bits
Compression mode : Lossy
Stream size : 926 MiB (12%)
Title : Sammys.Adventure.A.Turtles.Tale.2010.PROPER.1080p.x264.DTS.Shadoe
Language : Polish

Text
ID : 4
Format : UTF-8
Codec ID : S_TEXT/UTF8
Codec ID/Info : UTF-8 Plain Text
Title : Sammys.Adventure.A.Turtles.Tale.2010.PROPER.1080p.x264.DTS.Shadoe
Language : English

Menu
00:00:00.000 : en:(01)00:00:00:000
00:07:18.597 : en:(02)00:07:18:597
00:13:38.727 : en:(03)00:13:38:727
00:19:52.309 : en:(04)00:19:52:309
00:29:52.325 : en:(05)00:29:52:325
00:37:01.337 : en:(06)00:37:01:337
00:42:44.429 : en:(07)00:42:44:429
00:49:44.974 : en:(08)00:49:44:974
00:57:04.372 : en:(09)00:57:04:372
01:04:44.456 : en:(10)01:04:44:456
01:10:52.240 : en:(11)01:10:52:240
01:18:39.707 : en:(12)01:18:39:707
01:25:41.295 : en:(13)01:25:41:295

Sammys.Adventure.A.Turtles.Tale.2010.PROPER.1080p.x264.DTS.Shadoe.mkv 8.01 GB
Gathering some info...

Register and log in Isohunt and see no captcha anymore!

4000 symbols left
Hash 4792DCEED461E336F233AE9B72F8CC213B37DBC0

Related torrents for "Sammys Adventure A Turtles Tale 2010 PROPER 1080p x264 DTS Shadoe mkv"

Torrent search:

x264 2010 fullhd