Akaashvani 2013 DVDScr Hindi

Size 722.699 MB   6 seeders     Added 2013-02-03 03:41:12

Stream torrent
Starting‥ You need BitLord! Get it from BitLord.com
To download or stream you need BitLord. Visit them at BitLord.com
[img]image[/img]

[b]Cover:[/b]

[img]image[/img]

[b]Release info:[/b]

[code]General
Format : Matroska
Format version : Version 4 / Version 2
File size : 689 MiB
Duration : 2h 14mn
Overall bit rate : 716 Kbps
Movie name : Akaashvani 2013 DVDScr Hindi

Video
ID : 1
Format : MPEG-4 Visual
Format profile : Advanced Simple@L5
Format settings, BVOP : Yes
Format settings, QPel : No
Format settings, GMC : No warppoints
Format settings, Matrix : Custom
Codec ID : V_MS/VFW/FOURCC / XVID
Codec ID/Hint : XviD
Duration : 2h 14mn
Bit rate : 622 Kbps
Width : 608 pixels
Height : 256 pixels
Display aspect ratio : 2.40:1
Frame rate mode : Constant
Frame rate : 23.976 fps
Color space : YUV
Chroma subsampling : 4:2:0
Bit depth : 8 bits
Scan type : Progressive
Compression mode : Lossy
Bits/(Pixel*Frame) : 0.167
Stream size : 599 MiB (87%)
Title : Akaashvani 2013 DVDScr Hindi
Language : Hindi
Default : Yes
Forced : No

Audio
ID : 2
Format : MPEG Audio
Format version : Version 1
Format profile : Layer 3
Mode : Joint stereo
Mode extension : Intensity Stereo
Codec ID : A_MPEG/L3
Codec ID/Hint : MP3
Duration : 2h 14mn
Bit rate mode : Constant
Bit rate : 80.0 Kbps
Channel(s) : 2 channels
Sampling rate : 32.0 KHz
Compression mode : Lossy
Stream size : 77.0 MiB (11%)
Title : Akaashvani 2013 DVDScr Hindi
Language : Hindi
Default : Yes
Forced : No




Source:
credit to original movie ripper DDR (Thanks)[/code]

[b]IMDB Info:[/b]

[code]The film starts with Akaash & Vani, both setting out on their journey towards a common destination – St. Stephen's College, Delhi University. It so happens that the moment they meet
Star Cast
Kartik Tiwari.... Akaash
Nushrat Bharucha.... Vani
Sunny Singh Nijjar.... Ravi
Sana Shaikh.... Sumbul
Gautam Mehra.... Shekhar
Kiran Kumar.... Vani's Father
Shubhangi Latkar.... Vani's Mother
Mahesh Thakur.... Vani's Uncle
Prachi Shah.... Vani's Aunty

Genre
Comedy,Romance[/code]

http://www.imdb.com/title/tt2423132/

[b]Screen Shot:[/b]

[img]image[/img]
[img]image[/img]
[img]image[/img]
[img]image[/img]
Akaashvani 2013 DVDScr Hindi/Akaashvani 2013 DVDScr Hindi.mkv 722.696 MB
Akaashvani 2013 DVDScr Hindi/Torrent Downloaded From Digtorrent.org.txt 346 B
Akaashvani 2013 DVDScr Hindi/Torrent Downloaded From DivXHunt.tk.nfo 2.281 KB
Gathering some info...

Register and log in Isohunt and see no captcha anymore!

4000 symbols left
Hash b4005e99f17193a531043a4da0d8718860157f46

Related torrents for "Akaashvani 2013 DVDScr Hindi"

Torrent search:

screener hindi 2013