imdb
rating

7.9
Bones

Bones (2005)

Drama, Comedy, Crime

Full description

[Vostfr Proper] Bones S08E12 HDTV x264-LOL [TeKeSTe] mp4

Size 334.265 MB   0 seeders     Added 2013-02-03 19:39:46

Stream torrent
Starting‥ You need BitLord! Get it from BitLord.com
To download or stream you need BitLord. Visit them at BitLord.com
[Vostfr.Proper].Bones.S08E12.HDTV.x264-LOL.[TeKeSTe].mp4
Format                                   : MPEG-4
Format profile                           : Base Media
Codec ID                                 : isom
File size                                : 319 MiB
Duration                                 : 43mn 27s
Overall bit rate mode                    : Variable
Overall bit rate                         : 1 026 Kbps
Encoded date                             : UTC 2013-02-03 11:32:46
Tagged date                              : UTC 2013-02-03 11:32:46

Video
ID                                       : 1
Format                                   : AVC
Format/Info                              : Advanced Video Codec
Format profile                           : High 10@L3.0
Format settings, CABAC                   : Yes
Format settings, ReFrames                : 3 frames
Codec ID                                 : avc1
Codec ID/Info                            : Advanced Video Coding
Duration                                 : 43mn 26s
Bit rate                                 : 894 Kbps
Maximum bit rate                         : 5 283 Kbps
Width                                    : 720 pixels
Height                                   : 404 pixels
Display aspect ratio                     : 16:9
Frame rate mode                          : Constant
Frame rate                               : 23.976 fps
Color space                              : YUV
Chroma subsampling                       : 4:2:0
Bit depth                                : 10 bits
Scan type                                : Progressive
Bits/(Pixel*Frame)                       : 0.128
Stream size                              : 278 MiB (87%)
Title                                    : [Vostfr Proper] Bones S08E12 HDTV x264-LOL [TeKeSTe]
Writing library                          : x264 core 125 r2208 d9d2288
Encoding settings                        : cabac=1 / ref=3 / deblock=1:0:0 / analyse=0x3:0x113 / me=hex / subme=7 / psy=1 / psy_rd=1.00:0.00 / mixed_ref=1 / me_range=16 / chroma_me=1 / trellis=1 / 8x8dct=1 / cqm=0 / deadzone=21,11 / fast_pskip=1 / chroma_qp_offset=-2 / threads=12 / lookahead_threads=2 / sliced_threads=0 / nr=0 / decimate=1 / interlaced=0 / bluray_compat=0 / constrained_intra=0 / bframes=3 / b_pyramid=0 / b_adapt=1 / b_bias=0 / direct=1 / weightb=1 / open_gop=0 / weightp=2 / keyint=240 / keyint_min=24 / scenecut=40 / intra_refresh=0 / rc_lookahead=40 / rc=crf / mbtree=1 / crf=19.0 / qcomp=0.60 / qpmin=0 / qpmax=81 / qpstep=4 / ip_ratio=1.40 / aq=1:1.00
Encoded date                             : UTC 2013-02-03 11:32:46
Tagged date                              : UTC 2013-02-03 11:32:54

Audio
ID                                       : 2
Format                                   : AAC
Format/Info                              : Advanced Audio Codec
Format profile                           : LC
Codec ID                                 : 40
Duration                                 : 43mn 27s
Bit rate mode                            : Variable
Bit rate                                 : 128 Kbps
Maximum bit rate                         : 134 Kbps
Channel(s)                               : 2 channels
Channel positions                        : Front: L R
Sampling rate                            : 48.0 KHz
Compression mode                         : Lossy
Stream size                              : 39.8 MiB (12%)
Encoded date                             : UTC 2013-02-03 11:32:51
Tagged date                              : UTC 2013-02-03 11:32:54
		
[Vostfr.Proper].Bones.S08E12.HDTV.x264-LOL.[TeKeSTe].mp4 334.265 MB
Gathering some info...

Register and log in Isohunt and see no captcha anymore!

4000 symbols left
Hash 4B92728B81E0E6BEDD4FC4200663A0DBE1645F50

Related torrents for "[Vostfr Proper] Bones S08E12 HDTV x264-LOL [TeKeSTe] mp4"

Torrent search:

x264 hdtv episode 12 season 08