imdb
rating

8.0
The Incredibles

The Incredibles (2004)

Animation, Family

Full description

The Incredibles 2004 720p BRRip anoXmous

Size 735.415 MB   48 seeders     Added 2013-02-03 19:40:42

Stream torrent
Starting‥ You need BitLord! Get it from BitLord.com
10
To download or stream you need BitLord. Visit them at BitLord.com
[color=red][b]The.Incredibles.2004.720p.BRRip.x264.aac.mp4.anoXmous[/b][/color]

[IMG]image[/IMG]


[color=blue][b]Screens :[/b][/color]

image



[color=blue][b]Media Info[/b][/color]

Format : MPEG-4
Format profile : Base Media
Codec ID : isom
File size : 701 MiB
Duration : 1h 55mn
Overall bit rate mode : Variable
Overall bit rate : 849 Kbps


Video
ID : 1
Format : AVC
Format/Info : Advanced Video Codec
Format profile : High@L4.1
Format settings, CABAC : Yes
Format settings, ReFrames : 4 frames
Codec ID : avc1
Codec ID/Info : Advanced Video Coding
Duration : 1h 55mn
Bit rate : 775 Kbps
Maximum bit rate : 5 962 Kbps
Width : 1 280 pixels
Height : 544 pixels
Display aspect ratio : 2.40:1
Frame rate mode : Constant
Frame rate : 23.976 fps
Color space : YUV
Chroma subsampling : 4:2:0
Bit depth : 8 bits
Scan type : Progressive
Bits/(Pixel*Frame) : 0.046
Stream size : 639 MiB (91%)
Writing library : x264 core 119 r2106 07efeb4


Audio
ID : 2
Format : AAC
Format/Info : Advanced Audio Codec
Format profile : HE-AAC / LC
Codec ID : 40
Duration : 1h 55mn
Bit rate mode : Variable
Bit rate : 72.0 Kbps
Maximum bit rate : 101 Kbps
Channel(s) : 2 channels
Channel positions : Front: L R
Sampling rate : 48.0 KHz / 24.0 KHz
Compression mode : Lossy
Stream size : 59.3 MiB (8%)
Language : English

------------------------------------------------------------------------------
 SUB:
								
The.Incredibles.2004.720p.BRRip.x264.aac.mp4.anoXmous_eng.srt
The.Incredibles.2004.720p.BRRip.x264.aac.mp4.anoXmous_swe.srt

-------------------------------------------------------------------------------
 

http://www.imdb.com/title/tt0317705/

-------------------------------------------------------------------------------
Info.txt 2.42 KB
The.Incredibles.2004.720p.BRRip.x264.aac.mp4.anoXmous.mp4 735.208 MB
The.Incredibles.2004.720p.BRRip.x264.aac.mp4.anoXmous_eng.srt 104.472 KB
Gathering some info...

Register and log in Isohunt and see no captcha anymore!

4000 symbols left
Hash CE5A9775BA70768CD72D18FC6AC34A27FB84F0EF

Related torrents for "The Incredibles 2004 720p BRRip anoXmous"

Torrent search:

2004 hd bd