imdb
rating

7.9
Man on Wire

Man on Wire (2008)

Documentary

Full description
quality   hd bd x264 hdtv dvdrip screener

Man On Wire 2008 Limited 720p BRRip anoXmous

Size 728.761 MB   0 seeders     Added 2013-02-03 20:01:09

Stream torrent
Starting‥ You need BitLord! Get it from BitLord.com
To download or stream you need BitLord. Visit them at BitLord.com
[color=red][b]Man.On.Wire.2008.Limited.720p.BRRip.x264.ogg.mkv-anoXmous
[/b][/color]


[color=blue][b]Screens:[/b][/color] 
http://www.imagebam.com/image/8ed73f153955708


[color=blue][b]Media Info[/b][/color]

Format : Matroska
Format version : Version 2
File size : 695 MiB
Duration : 1h 34mn
Overall bit rate mode : Variable
Overall bit rate : 1 032 Kbps
Writing application : mkvmerge v5.0.0 ('Die Wahre Liebe') built on Sep 25 2011 20:33:49
Writing library : libebml v1.2.2 + libmatroska v1.3.0

Video
ID : 1
Format : AVC
Format/Info : Advanced Video Codec
Format profile : High@L3.1
Format settings, CABAC : Yes
Format settings, ReFrames : 4 frames
Muxing mode : Header stripping
Codec ID : V_MPEG4/ISO/AVC
Duration : 1h 34mn
Bit rate : 973 Kbps
Width : 1 280 pixels
Height : 688 pixels
Display aspect ratio : 1.859
Original display aspect ratio : 1.860
Frame rate mode : Variable
Frame rate : 23.976 fps
Color space : YUV
Chroma subsampling : 4:2:0
Bit depth : 8 bits
Scan type : Progressive
Bits/(Pixel*Frame) : 0.046
Stream size : 638 MiB (92%)
Writing library : x264 core 112


ID : 2
Format : Vorbis
Format settings, Floor : 1
Codec ID : A_VORBIS
Duration : 1h 34mn
Bit rate mode : Variable
Bit rate : 64.0 Kbps
Channel(s) : 2 channels
Sampling rate : 48.0 KHz
Compression mode : Lossy
Stream size : 43.1 MiB (6%)
Writing library : aoTuV 20110424 (UTC 2011-04-24)

Text
ID : 3
Format : UTF-8
Codec ID : S_TEXT/UTF8
Codec ID/Info : UTF-8 Plain Text
Language : Swedish

--------------------------------------------------------------------------

http://www.imdb.com/title/tt1155592/

--------------------------------------------------------------------------
Info.txt 3.934 KB
Man.On.Wire.2008.Limited.720p.BRRip.x264.ogg.mkv-anoXmous.mkv 728.757 MB
Gathering some info...

Register and log in Isohunt and see no captcha anymore!

4000 symbols left
Hash 2401F3B76537201BD949FE79CD18431F881A70EB

Related torrents for "Man On Wire 2008 Limited 720p BRRip anoXmous"

Torrent search:

hd 2008 bd