Tropa de Elite [Elite Squad] 2007 720p Bluray anoXmous

Size 733.485 MB   123 seeders     Added 2013-02-03 20:41:07

Stream torrent
Starting‥ You need BitLord! Get it from BitLord.com
10
To download or stream you need BitLord. Visit them at BitLord.com
[color=blue][b]Tropa.de.Elite (Elite Squad)2007.720p.Bluray.x264.anoXmous[/b][/color]

------------------------------------------------------------------------------------
[size=200][b]
Language : Portuguese

Subtitles : English , Swedish[/b][/size]
------------------------------------------------------------------------------------

[color=blue][b]Screens made by Media Player Classic:[/b][/color] 
http://www.imagebam.com/image/900ec5167926878


[color=blue][b]Media Info[/b][/color]

Format : MPEG-4
Format profile : Base Media
Codec ID : isom
File size : 699 MiB
Duration : 1h 54mn
Overall bit rate mode : Variable
Overall bit rate : 852 Kbps


Video
ID : 1
Format : AVC
Format/Info : Advanced Video Codec
Format profile : High@L4.1
Format settings, CABAC : Yes
Format settings, ReFrames : 4 frames
Codec ID : avc1
Codec ID/Info : Advanced Video Coding
Duration : 1h 54mn
Bit rate : 783 Kbps
Maximum bit rate : 3 851 Kbps
Width : 1 280 pixels
Height : 692 pixels
Display aspect ratio : 1.850
Frame rate mode : Constant
Frame rate : 23.976 fps
Color space : YUV
Chroma subsampling : 4:2:0
Bit depth : 8 bits
Scan type : Progressive
Bits/(Pixel*Frame) : 0.037
Stream size : 642 MiB (92%)
Writing library : x264 core 120 r2120 0c7dab9


Audio
ID : 2
Format : AAC
Format/Info : Advanced Audio Codec
Format profile : LC
Codec ID : 40
Duration : 1h 54mn
Bit rate mode : Variable
Bit rate : 66.2 Kbps
Maximum bit rate : 95.3 Kbps
Channel(s) : 2 channels
Channel positions : Front: L R
Sampling rate : 48.0 KHz 
Compression mode : Lossy
Stream size : 55.0 MiB (8%)


------------------------------------------------------------------------------
 SUB :

: Tropa.de.Elite.Elite.Squad.2007.720p.Bluray.x264.anoXmous_eng.srt
 
: Tropa.de.Elite.Elite.Squad.2007.720p.Bluray.x264.anoXmous_swe.srt

------------------------------------------------------------------------------
 

 http://www.imdb.com/title/tt0861739/

------------------------------------------------------------------------------

		 This work very fine with PSP and XBOX

------------------------------------------------------------------------------
iNFo.txt 2.492 KB
Tropa.de.Elite.Elite.Squad.2007.720p.Bluray.x264.anoXmous.mp4 733.251 MB
Tropa.de.Elite.Elite.Squad.2007.720p.Bluray.x264.anoXmous_eng.srt 117.216 KB
Gathering some info...

Register and log in Isohunt and see no captcha anymore!

4000 symbols left
Hash 174E148C270F92D9439C67960111891B1EAA3418

Related torrents for "Tropa de Elite [Elite Squad] 2007 720p Bluray anoXmous"

Torrent search:

2007 hd bd