imdb
rating

7.3
Natural Born Killers

Natural Born Killers (1994)

Crime, Drama, Thriller

Full description
quality   x264 hd bd h264 dvdrip fullhd

Natural Born Killers 1994 Director's Cut 720p BRRip anoXmous

Size 731.383 MB   14 seeders     Added 2013-02-03 21:01:09

Stream torrent
Starting‥ You need BitLord! Get it from 1BitLord.com
10
To download or stream you need BitLord. Visit them at BitLord.com
[color=red][b]Natural.Born.Killers.1994.DC.720p.BRRip.x264.ogg.mkv-anoXmous[/b][/color]


[color=blue][b]Screens:[/b][/color] 
http://www.imagebam.com/image/d65edd152044101


[color=blue][b]Media Info[/b][/color]

Format : Matroska
Format version : Version 2
File size : 697 MiB
Duration : 2h 2mn
Overall bit rate mode : Variable
Overall bit rate : 799 Kbps
Writing application : mkvmerge v4.9.1 ('Ich will') built on Jul 11 2011 23:53:15
Writing library : libebml v1.2.1 + libmatroska v1.1.1
[b]
Video[/b]
ID : 1
Format : AVC
Format/Info : Advanced Video Codec
Format profile : High@L4.1
Format settings, CABAC : Yes
Format settings, ReFrames : 4 frames
Codec ID : V_MPEG4/ISO/AVC
Duration : 2h 2mn
Bit rate : 737 Kbps
Width : 1 280 pixels
Height : 720 pixels
Display aspect ratio : 16:9
Frame rate : 23.976 fps
Color space : YUV
Chroma subsampling : 4:2:0
Bit depth : 8 bits
Scan type : Progressive
Bits/(Pixel*Frame) : 0.033
Stream size : 628 MiB (90%)
Writing library : x264 core 116 r2074 2641b9e

[b]Audio[/b]
ID : 2
Format : Vorbis
Format settings, Floor : 1
Codec ID : A_VORBIS
Duration : 2h 2mn
Bit rate mode : Variable
Bit rate : 64.0 Kbps
Channel(s) : 2 channels
Sampling rate : 48.0 KHz
Compression mode : Lossy
Stream size : 55.9 MiB (8%)
Writing library : aoTuV 20110424 (UTC 2011-04-24)
Language : English
[b]
Text #1[/b]
ID : 3
Format : UTF-8
Codec ID : S_TEXT/UTF8
Codec ID/Info : UTF-8 Plain Text
Language : English

[b]Text #2[/b]
ID : 4
Format : UTF-8
Codec ID : S_TEXT/UTF8
Codec ID/Info : UTF-8 Plain Text
Language : Swedish
 
--------------------------------------------------------------------------------

http://www.imdb.com/title/tt0110632/		

--------------------------------------------------------------------------------
Info.txt 2.479 KB
Natural.Born.Killers.1994.DC.720p.BRRip.x264.ogg.mkv-anoXmous.mkv 731.381 MB
Gathering some info...

Register and log in Isohunt and see no captcha anymore!

4000 symbols left
Hash CFAC6A01821025CD546F3E90930E436D2476A77D

Related torrents for "Natural Born Killers 1994 Director's Cut 720p BRRip anoXmous"

Torrent search:

1994 hd bd