imdb
rating

7.4
Easy Rider

Easy Rider (1969)

Action, Adventure, Crime, Drama

Full description
quality   dvdrip fullhd x264 hd bd dvdr hdtv

Easy Rider 1969 720p Bluray anoXmous

Size 734.254 MB   9 seeders     Added 2013-02-03 22:21:02

Stream torrent
Starting‥ You need BitLord! Get it from 1BitLord.com
10
To download or stream you need BitLord. Visit them at BitLord.com
[color=red][b]Easy.Rider.1969.720p.Bluray.x264.anoXmous[/b]
[/color]

[b]
Language : English

Subtitles: English, Italian, Portuguese, Norwegian, Swedish, Danish, Finnish[/b]


[color=blue][b]Screens made by Media Player Classic:[/b][/color] 
http://www.imagebam.com/image/7cee43166300158


[color=blue][b]Media Info[/b][/color]

Format : MPEG-4
Format profile : Base Media
Codec ID : isom
File size : 700 MiB
Duration : 1h 35mn
Overall bit rate mode : Variable
Overall bit rate : 1 024 Kbps


[b]Video[/b]
ID : 1
Format : AVC
Format/Info : Advanced Video Codec
Format profile : High@L4.1
Format settings, CABAC : Yes
Format settings, ReFrames : 4 frames
Codec ID : avc1
Codec ID/Info : Advanced Video Coding
Duration : 1h 35mn
Bit rate : 954 Kbps
Maximum bit rate : 4 635 Kbps
Width : 1 280 pixels
Height : 688 pixels
Display aspect ratio : 16:9
Original display aspect ratio : 1.850
Frame rate mode : Constant
Frame rate : 23.976 fps
Color space : YUV
Chroma subsampling : 4:2:0
Bit depth : 8 bits
Scan type : Progressive
Bits/(Pixel*Frame) : 0.045
Stream size : 652 MiB (93%)
Writing library : x264 core 120 r2120 0c7dab9


[b]Audio[/b]
ID : 2
Format : AAC
Format/Info : Advanced Audio Codec
Format profile : LC
Codec ID : 40
Duration : 1h 35mn
Bit rate mode : Variable
Bit rate : 66.2 Kbps
Maximum bit rate : 90.2 Kbps
Channel(s) : 2 channels
Channel positions : Front: L R
Sampling rate : 48.0 KHz 
Compression mode : Lossy
Stream size : 45.6 MiB (7%)
Language : English

----------------------------------------------------------------------------

Subtitles:
English, Italian, Spanish, Danish, 
Finnish, Norwegian, Portuguese and Swedish
						
-----------------------------------------------------------------------------

 http://www.imdb.com/title/tt0064276/	

------------------------------------------------------------------------------

This work very fine with PSP and XBOX

------------------------------------------------------------------------------
Easy.Rider.1969.720p.Bluray.x264.anoXmous.mp4 733.894 MB
Easy.Rider.1969.720p.Bluray.x264.anoXmous_track11_nor.srt 41.663 KB
Easy.Rider.1969.720p.Bluray.x264.anoXmous_track12_por.srt 44.765 KB
Gathering some info...

Register and log in Isohunt and see no captcha anymore!

4000 symbols left
Hash AD441FA0A38859815F856CA3DA2BC9B861D0A1F0

Related torrents for "Easy Rider 1969 720p Bluray anoXmous"

Torrent search:

1969 hd bd