imdb
rating

4.5
Bad Kids Go to Hell

Bad Kids Go to Hell (2012)

Comedy, Mystery, Thriller

Full description

Bad Kids Go To Hell 2012 WEBRIP Xvid AC3-BHRG

Size 778.094 MB   13 seeders     Added 2013-02-04 00:35:40

Stream torrent
Starting‥ You need BitLord! Get it from BitLord.com
To download or stream you need BitLord. Visit them at BitLord.com
General
Complete name : Bad Kids Go To Hell 2012 WEBRIP Xvid AC3-BHRGAc3-BHRG.avi
Format : AVI
Format/Info : Audio Video Interleave
File size : 735 MiB
Duration : 1h 32mn
Overall bit rate : 1 106 Kbps

Video
ID : 0
Format : MPEG-4 Visual
Format profile : Advanced Simple@L5
Format settings, BVOP : 2
Format settings, QPel : No
Format settings, GMC : No warppoints
Format settings, Matrix : Default (H.263)
Codec ID : XVID
Codec ID/Hint : XviD
Duration : 1h 32mn
Bit rate : 874 Kbps
Width : 720 pixels
Height : 400 pixels
Display aspect ratio : 16:9
Frame rate : 23.976 fps
Color space : YUV
Chroma subsampling : 4:2:0
Bit depth : 8 bits
Scan type : Progressive
Compression mode : Lossy
Bits/(Pixel*Frame) : 0.127
Stream size : 581 MiB (79%)
Writing library : XviD 1.2.1 (UTC 2008-12-04)

Audio
ID : 1
Format : AC-3
Format/Info : Audio Coding 3
Mode extension : CM (complete main)
Format settings, Endianness : Big
Codec ID : 2000
Duration : 1h 32mn
Bit rate mode : Constant
Bit rate : 224 Kbps
Channel(s) : 2 channels
Channel positions : Front: L R
Sampling rate : 48.0 KHz
Bit depth : 16 bits
Compression mode : Lossy
Stream size : 149 MiB (20%)
Alignment : Aligned on interleaves
Interleave, duration : 64 ms (1.53 video frames)
Interleave, preload duration : 192 ms
Title : Bad Kids Go to Hell 2012 WEBRip x264 AAC-FooKaS - [1] English

[img]image[/img]
[img]image[/img]
[img]image[/img]
[img]image[/img]
Bad Kids Go to Hell 2012 WEBRip Xvid Ac3-BHRG sample.avi 7.734 MB
Bad Kids Go to Hell 2012 WEBRip Xvid Ac3-BHRG.avi 770.358 MB
Bad Kids Go to Hell 2012 WEBRip Xvid Ac3-BHRG.nfo 2.72 KB
Gathering some info...

Register and log in Isohunt and see no captcha anymore!

4000 symbols left
Hash 1406AAECF18807DC0D7C4898142B4D3E866797DC

Related torrents for "Bad Kids Go To Hell 2012 WEBRIP Xvid AC3-BHRG"

Torrent search:

2012 web-rip