imdb
rating

2.8
Punishment

Punishment (2013)

Horror, Thriller

Full description
quality   dvdrip dvdr hdtv x264

Down the Road, Punishment 2013 DVDrip English Klam

Size 1.576 GB   0 seeders     Added 2013-02-04 00:48:50

Stream torrent
Starting‥ You need BitLord! Get it from 1BitLord.com
10
To download or stream you need BitLord. Visit them at BitLord.com
With: Jen Dance, Shaun Paul Costello and Chelsey Garner

Vader Hunter Isth wordt opgeschrikt door een tragisch ongeval. Hij vlucht de stad uit en wordt niet meer gezien. Feestende tieners worden het slachtoffer van een dorpsgek en door de jaren heen worden de verhalen legendes en, zeer waarschijnlijk, mythes. In de huidige tijd ontmoeten we Jenn, een mooi en stoer meisje, dat net is ontslagen na een lange tijd in het ziekenhuis. Als haar ouders haar thuisbrengen heeft ze amper tijd om bij te komen als haar vrienden op bezoek komen en haar meenemen op kamp. De zeven vrienden trekken de bossen in maar wanneer ze één voor één verdwijnen, moeten ze de wraak van een gestoorde man zien te overleven...

A group of college students escape their troubled lives but only to find themselves fighting for their lives from a revenge seeking mad man. 
 
http://www.imdb.com/title/tt1770675	

------------------------ Dutch Friends ------------------------
---------------------------------------------------------------
- Bezoek ook eens mijn vrienden op:  http://www.Film-Test.nl --
----- voor mijn Nederlandse Sync. ondertitels ---- en meer ----
------- http://www.Film-Test.nl ---- Over Films en meer -------
---------------------------------------------------------------

General:

Complete name                    : Down the Road, PunishmentDown the Road, Punishment.avi
Format                           : AVI
Format/Info                      : Audio Video Interleave
File size                        : 1.47 GiB
Duration                         : 1h 14mn
Overall bit rate                 : 2 818 Kbps

Video:

Format                           : MPEG-4 Visual
Format profile                   : Simple@L3
Format settings, BVOP            : No
Format settings, QPel            : No
Format settings, GMC             : No warppoints
Format settings, Matrix          : Default (H.263)
Codec ID                         : XVID
Codec ID/Hint                    : XviD
Duration                         : 1h 14mn
Bit rate                         : 2 359 Kbps
Width                            : 704 pixels
Height                           : 396 pixels
Display aspect ratio             : 16:9
Frame rate                       : 25.000 fps
Color space                      : YUV
Chroma subsampling               : 4:2:0
Bit depth                        : 8 bits
Scan type                        : Progressive
Compression mode                 : Lossy
Bits/(Pixel*Frame)               : 0.339
Stream size                      : 1.23 GiB (84%)
Writing library                  : XviD 1.1.2 (UTC 2006-11-01)

Audio:

Format                           : AC-3
Format/Info                      : Audio Coding 3
Mode extension                   : CM (complete main)
Codec ID                         : 2000
Duration                         : 1h 14mn
Bit rate mode                    : Constant
Bit rate                         : 448 Kbps
Channel(s)                       : 6 channels
Channel positions                : Front: L C R, Side: L R, LFE
Sampling rate                    : 48.0 KHz
Bit depth                        : 16 bits
Compression mode                 : Lossy
Stream size                      : 239 MiB (16%)
Alignment                        : Aligned on interleaves
Interleave, duration             : 32 ms (0.80 video frame)
Interleave, preload duration     : 288 ms		
Down the Road, Punishment/Cover/www.Film-Test.nl.JPG 29.467 KB
Down the Road, Punishment/Down the Road, Punishment.avi 1.576 GB
Down the Road, Punishment/New Dutch Site.txt 117 B
Gathering some info...

Register and log in Isohunt and see no captcha anymore!

4000 symbols left
Hash cf331ed7603625114c97be3583d5174c9ace158e

Related torrents for "Down the Road, Punishment 2013 DVDrip English Klam"

Torrent search:

dvdrip english 2013