imdb
rating

6.2
The Last Time

The Last Time (2006)

Drama, Romance

Full description
quality   h264 hd dvdrip fullhd

David Guetta - Just One Last Time ft. Taped Rai 720p

Size 48.647 MB   3 seeders     Added 2013-02-04 04:12:46

Stream torrent
Starting‥ You need BitLord! Get it from 1BitLord.com
To download or stream you need BitLord. Visit them at BitLord.com
Format                                   : MPEG-4
Format profile                           : Base Media / Version 2
Codec ID                                 : mp42
File size                                : 46.4 MiB
Duration                                 : 4mn 15s
Overall bit rate mode                    : Variable
Overall bit rate                         : 1 521 Kbps
Encoded date                             : UTC 2012-12-02 20:24:12
Tagged date                              : UTC 2012-12-02 20:24:12
gsst                                     : 0
gstd                                     : 255953
gssd                                     : B9BE8F006HH1359918844825173
gshh                                     :

Video
ID                                       : 1
Format                                   : AVC
Format/Info                              : Advanced Video Codec
Format profile                           : High@L3.1
Format settings, CABAC                   : Yes
Format settings, ReFrames                : 1 frame
Codec ID                                 : avc1
Codec ID/Info                            : Advanced Video Coding
Duration                                 : 4mn 15s
Bit rate                                 : 1 327 Kbps
Maximum bit rate                         : 3 142 Kbps
Width                                    : 1 280 pixels
Height                                   : 720 pixels
Display aspect ratio                     : 16:9
Frame rate mode                          : Constant
Frame rate                               : 23.976 fps
Color space                              : YUV
Chroma subsampling                       : 4:2:0
Bit depth                                : 8 bits
Scan type                                : Progressive
Bits/(Pixel*Frame)                       : 0.060
Stream size                              : 40.5 MiB (87%)
Tagged date                              : UTC 2012-12-02 20:24:12

Audio
ID                                       : 2
Format                                   : AAC
Format/Info                              : Advanced Audio Codec
Format profile                           : LC
Codec ID                                 : 40
Duration                                 : 4mn 15s
Bit rate mode                            : Variable
Bit rate                                 : 192 Kbps
Maximum bit rate                         : 202 Kbps
Channel(s)                               : 2 channels
Channel positions                        : Front: L R
Sampling rate                            : 44.1 KHz
Compression mode                         : Lossy
Stream size                              : 5.85 MiB (13%)
Title                                    : IsoMedia File Produced by Google, 5-11-2011
Encoded date                             : UTC 2012-12-02 20:24:12
Tagged date                              : UTC 2012-12-02 20:24:12		
David Guetta - Just One Last Time ft. Taped Rai.mp4 48.647 MB
Gathering some info...

Register and log in Isohunt and see no captcha anymore!

4000 symbols left
Hash FC550FAF1BF0DF0E47ADC40768489B024C960C9A

Related torrents for "David Guetta - Just One Last Time ft. Taped Rai 720p"

Torrent search:

hd