Super Bowl

Super Bowl (1967)

Sports

Full description

Beyonce.Live.at.Super.Bowl.03.02.2013.720p.HDTV.X264-Junio2

Size 329.903 MB   12 seeders     Added 2013-02-04 10:58:27

Stream torrent
Starting‥ You need BitLord! Get it from 1BitLord.com
To download or stream you need BitLord. Visit them at BitLord.com
Halftime show!
Format                                   : MPEG-4
Format profile                           : Base Media / Version 2
Codec ID                                 : mp42
File size                                : 315 MiB
Duration                                 : 14mn 24s
Overall bit rate mode                    : Variable
Overall bit rate                         : 3 052 Kbps
Video
ID                                       : 1
Format                                   : AVC
Format/Info                              : Advanced Video Codec
Format profile                           : High@L3.1
Format settings, CABAC                   : Yes
Format settings, ReFrames                : 1 frame
Codec ID                                 : avc1
Codec ID/Info                            : Advanced Video Coding
Duration                                 : 14mn 24s
Bit rate                                 : 2 858 Kbps
Maximum bit rate                         : 6 366 Kbps
Width                                    : 1 280 pixels
Height                                   : 720 pixels
Display aspect ratio                     : 16:9
Frame rate mode                          : Constant
Frame rate                               : 25.000 fps
Color space                              : YUV
Chroma subsampling                       : 4:2:0
Bit depth                                : 8 bits
Scan type                                : Progressive
Bits/(Pixel*Frame)                       : 0.124
Stream size                              : 295 MiB (94%)
Audio
ID                                       : 2
Format                                   : AAC
Format/Info                              : Advanced Audio Codec
Format profile                           : LC
Codec ID                                 : 40
Duration                                 : 14mn 24s
Bit rate mode                            : Variable
Bit rate                                 : 192 Kbps
Maximum bit rate                         : 201 Kbps
Channel(s)                               : 2 channels
Channel positions                        : Front: L R
Sampling rate                            : 44.1 KHz
Compression mode                         : Lossy
Stream size                              : 19.8 MiB (6%)		
Beyonce.Live.at.Super.Bowl.03.02.2013.720p.HDTV.X264-Junio_Tk2.mp4 329.903 MB
Gathering some info...

Register and log in Isohunt and see no captcha anymore!

4000 symbols left
Hash 7FD623AF74619A0439E8CAA00C76600A437E8341

Related torrents for "Beyonce.Live.at.Super.Bowl.03.02.2013.720p.HDTV.X264-Junio2"

Torrent search:

x264 hdtv hd 2013