Vampoire Boys (2011)

Size 1.764 GB   2 seeders     Added 2013-02-04 14:34:25

Stream torrent
Starting‥ You need BitLord! Get it from 1BitLord.com
To download or stream you need BitLord. Visit them at BitLord.com
Storyline
Jasin and his vampire broods time is running out. In order for them to survive, Jasin needs to find a mortal to turn into a vampire to spend eternity with. Los Angeles provides plenty of young candidates. The brood has their eyes set on Tara, a young, gorgeous blond college student. Tara is open to the idea of becoming a vampire, but someone else enters the picture to disrupt the broods plans. Caleb, a fresh face college student new to Los Angeles, keeps dreaming of a mysterious stranger. At school, Caleb meets the stranger, Jasin, and they have an instant connection. The problem is that time is short, and Jasin needs to convince Caleb that eternity as a vampire can be a very sweet life. 
Format                                   : MPEG-4
Format profile                           : Base Media
Codec ID                                 : isom
File size                                : 1.63 GiB
Duration                                 : 1h 10mn
Overall bit rate mode                    : Variable
Overall bit rate                         : 3 325 Kbps
Movie name                               : Vampire Boys
Performer                                : Charlie Vaughn
Genre                                    : Horror
Recorded date                            : UTC 2012-06-01 07:00:00
Tagged date                              : UTC 2013-01-29 10:52:53
Cover                                    : Yes
desc                                     : Jasin and his vampire brood are in search of The One. In order for them all to survive, Jasin needs to find the special mortal whom he can turn into a vampire and spend eternity with. The brood has their eyes set on Tara, a young, gorgeous and seductive
ldes                                     : Jasin and his vampire brood are in search of The One. In order for them all to survive, Jasin needs to find the special mortal whom he can turn into a vampire and spend eternity with. The brood has their eyes set on Tara, a young, gorgeous and seductive blonde college student who is open to the idea of becoming a vampire, BUT, someone else enters the picture and disrupts the broods plans. Caleb, a fresh faced college student, new to Los Angeles, keeps having dreams of a mysterious stranger. At school, Caleb meets the stranger, Jasin, and the two share an instant connection. Against tradition, and despite the impending deadline and protests from both the brood and Calebs roommate, Jasin fights the battle to choose his own eternal one.
Video
ID                                       : 1
Format                                   : AVC
Format/Info                              : Advanced Video Codec
Format profile                           : Baseline@L3.0
Format settings, CABAC                   : No
Format settings, ReFrames                : 3 frames
Codec ID                                 : avc1
Codec ID/Info                            : Advanced Video Coding
Duration                                 : 1h 10mn
Bit rate                                 : 3 193 Kbps
Width                                    : 1 280 pixels
Height                                   : 720 pixels
Display aspect ratio                     : 16:9
Frame rate mode                          : Constant
Frame rate                               : 23.976 fps
Color space                              : YUV
Chroma subsampling                       : 4:2:0
Bit depth                                : 8 bits
Scan type                                : Progressive
Bits/(Pixel*Frame)                       : 0.145
Stream size                              : 1.56 GiB (96%)
Audio
ID                                       : 2
Format                                   : AAC
Format/Info                              : Advanced Audio Codec
Format profile                           : LC
Codec ID                                 : 40
Duration                                 : 1h 10mn
Bit rate mode                            : Variable
Bit rate                                 : 128 Kbps
Maximum bit rate                         : 237 Kbps
Channel(s)                               : 2 channels
Channel positions                        : Front: L R
Sampling rate                            : 48.0 KHz
Compression mode                         : Lossy
Stream size                              : 64.2 MiB (4%)
Language                                 : English
Text
ID                                       : 3
Format                                   : Apple text
Codec ID                                 : text
Duration                                 : 1h 10mn
Sample Included		
Vampire Boys (2011) CD.jpg 114.924 KB
Vampire Boys (2011) Front Cover.jpg 1.373 MB
Vampire Boys (HD).mp4 1.748 GB
Gathering some info...

Register and log in Isohunt and see no captcha anymore!

4000 symbols left
Hash E5A672B68A724620A7852DF23D88AEA5896B1367