imdb
rating

7.1
The Master

The Master (2012)

Drama

Full description
quality   dvdr dvdrip

The Master 2012 720p BluRay DTS-5 1 x264-AXED

Size 5.726 GB   7 seeders     Added 2013-02-04 15:00:55

Stream torrent
Starting‥ You need BitLord! Get it from BitLord.com
To download or stream you need BitLord. Visit them at BitLord.com
( ___ )|\ /|( ____ \( __ \ 
| ( ) |( \ / )| ( \/| ( \ )
| (___) | \ (_) / | (__ | | ) |
| ___ | ) _ ( | __) | | | |
| ( ) | / ( ) \ | ( | | ) |
| ) ( |( / \ )| (____/\| (__/ )
|/ \||/ \|(_______/(______/ 
 _ _ _ _ _ _ _ _ 
 / \ / \ / \ / \ / \ / \ / \ / \ 
( p )( r )( e )( s )( e )( n )( t )( s )
 \_/ \_/ \_/ \_/ \_/ \_/ \_/ \_/
 
The.Master.2012.720p.BluRay.DTS-5.1.x264-AXED

POSTER: 
[IMG]image[/IMG]

IMDB: 
http://www.imdb.com/title/tt1560747/

PLOT INFO:
Returning from Navy service in World War II, Freddie Quell drifts through a series of PTSD-driven breakdowns. Finally he stumbles upon a cult which engages in exercises to clear emotions and he becomes deeply involved with them. 

Mediainfo
General
Unique ID : 249776118759123533452691360784048767137 (0xBBE9217259C197579F5998BE1B8CC0A1)
Complete name : The.Master.2012.720p.BluRay.DTS-5.1.x264-AXED.mkv
Format : Matroska
File size : 5.29 GiB
Duration : 2h 17mn
Overall bit rate : 5 512 Kbps
Encoded date : UTC 2013-02-03 20:56:09
Writing application : mkvmerge v4.9.1 ('Ich will') built on Jul 11 2011 23:53:15
Writing library : libebml v1.2.1 + libmatroska v1.1.1

Video
ID : 1
Format : AVC
Format/Info : Advanced Video Codec
Format profile : High@L4.1
Format settings, CABAC : Yes
Format settings, ReFrames : 3 frames
Format settings, GOP : M=4, N=24
Codec ID : V_MPEG4/ISO/AVC
Duration : 2h 17mn
Bit rate mode : Variable
Bit rate : 3 999 Kbps
Maximum bit rate : 40.0 Mbps
Width : 1 280 pixels
Height : 688 pixels
Display aspect ratio : 1.860
Frame rate : 23.976 fps
Color space : YUV
Chroma subsampling : 4:2:0
Bit depth : 8 bits
Scan type : Progressive
Bits/(Pixel*Frame) : 0.189
Stream size : 3.74 GiB (71%)
Writing library : x264 core 116 r2074 2641b9e
Encoding settings : cabac=1 / ref=4 / deblock=1:0:0 / analyse=0x3:0x113 / me=hex / subme=7 / psy=1 / psy_rd=1.00:0.00 / mixed_ref=1 / me_range=16 / chroma_me=1 / trellis=1 / 8x8dct=1 / cqm=0 / deadzone=21,11 / fast_pskip=1 / chroma_qp_offset=-2 / threads=3 / sliced_threads=0 / slices=4 / nr=0 / decimate=1 / interlaced=0 / bluray_compat=0 / constrained_intra=0 / bframes=3 / b_pyramid=1 / b_adapt=1 / b_bias=0 / direct=1 / weightb=1 / open_gop=0 / weightp=0 / keyint=24 / keyint_min=2 / scenecut=40 / intra_refresh=0 / rc_lookahead=24 / rc=2pass / mbtree=1 / bitrate=3999 / ratetol=1.0 / qcomp=0.60 / qpmin=10 / qpmax=51 / qpstep=4 / cplxblur=20.0 / qblur=0.5 / vbv_maxrate=40000 / vbv_bufsize=30000 / nal_hrd=vbr / ip_ratio=1.40 / aq=1:1.00
Language : English

Audio
ID : 2
Format : DTS
Format/Info : Digital Theater Systems
Codec ID : A_DTS
Duration : 2h 17mn
Bit rate mode : Constant
Bit rate : 1 510 Kbps
Channel(s) : 6 channels
Channel positions : Front: L C R, Side: L R, LFE
Sampling rate : 48.0 KHz
Bit depth : 24 bits
Compression mode : Lossy
Stream size : 1.45 GiB (27%)



SOURCE: 
Region A Retail Blu Ray DISC

NOTES: 
Here is the 720p, finally. People must have been waiting for this one. We even have SCENE on our nuts. 

AXED! We do this better.

SCREENS:
[IMG]image[/IMG]
[IMG]image[/IMG]
[IMG]image[/IMG]
[IMG]image[/IMG]
[IMG]image[/IMG]

[video=http://www.youtube.com/watch?v=fJ1O1vb9AUU]
rarbg.com.url 116 B
SAMPLE.mkv 41 MB
The.Master.2012.720p.BluRay.DTS-5.1.x264-AXED.mkv 5.685 GB
Gathering some info...

Register and log in Isohunt and see no captcha anymore!

4000 symbols left
Hash 12D42A0BD9DCBF90663A8B318076707857939436

Related torrents for "The Master 2012 720p BluRay DTS-5 1 x264-AXED"

Torrent search:

x264 hd 2012 bd