Kesha - Cmon M4A+MP4 (1080p) x264 [VX] [P2PDL]

Size 74.308 MB   14 seeders     Added 2013-02-04 18:55:04

Stream torrent
Starting‥ You need BitLord! Get it from BitLord.com
To download or stream you need BitLord. Visit them at BitLord.com
[center][img]image[/img]

[b]Kesha - Cmon 2013 M4A+MP4 (1080p) x264 [VX] [P2PDL][/b]

[color=red][b]1080p Full HD MP4 Video + 128 Kbps/VBR M4A Audio[/b][/color]

[code]General
Complete name : Ke$ha - C'mon (1080p) x264 [VX] [P2PDL].mp4
Format : MPEG-4
Format profile : Base Media / Version 2
Codec ID : mp42
File size : 66.6 MiB
Duration : 4mn 48s
Overall bit rate mode : Variable
Overall bit rate : 1 940 Kbps

Video
Format : AVC
Width : 1 920 pixels
Height : 1 080 pixels
Display aspect ratio : 16:9
Frame rate mode : Variable
Frame rate : 23.976 fps
Color space : YUV
Chroma subsampling : 4:2:0
Bit depth : 8 bits
Scan type : Progressive
Bits/(Pixel*Frame) : 0.036
Stream size : 61.9 MiB (93%)
Writing library : x264 core 128

Audio
Format : AAC
Bit rate mode : Variable
Bit rate : 128 Kbps
Channel(s) : 2 channels
Channel positions : Front: L R
Sampling rate : 48.0 KHz
Stream size : 4.39 MiB (7%)

Subtitles : No[/code]

Screens:

[img]image[/img]
[img]image[/img]

Thumbs:

[img]image[/img]

[img]image[/img]
------------------------------------------------------------------------

[code]Notes:

* Recommended to use latest version VLC Media Player.
* Install shark007 codecs in case of any kind of problem in playback (For non-VLC Media Player users).
* Alternatively, install Core AVC codecs, the fastest decoder that there is coupled with Community Center Codec Pack and play on Windows Media Player Classic.

Greets to: VYTO, a2zRG, MusiK_KinG, Kuroyukihime, Caveman, Ash968, Neon, Masta, TorDigger and staff members at ExtraTorrent, TPB, H33T, KAT, 1337x, PublicHD, Ahashare, TorrentMafia, Limetorrents, BTScene, P2PDL, and all others

Encoder Notes: Looking For Early Access To Anything You Can Provide DVDScr, R5, DVDRips, BluRay, Direct Audio, Early Music
Releases, Seedboxes, Links, Dedicated Servers anything u can provide, Advance / Promo CDs/DVDs. If You Got anything to
offer contact me at "prg@hush.com"[/code]

[URL=http://www.facebook.com/p2pdl][IMG]image[/IMG][/URL][/center]
Cover.jpg 107.344 KB
Info.nfo 10.094 KB
Ke$ha - C'mon (1080p) x264 [VX] [P2PDL].mp4 69.832 MB
Gathering some info...

Register and log in Isohunt and see no captcha anymore!

4000 symbols left
Hash 65C0979D456C9AD2278B8ADEF5BD50939AA6B77A