Robbie Williams: One Night at the Palladium

Robbie Williams: One Night at the Palladium (2013)

Music

Full description
quality   x264 fullhd hdtv hd bd

Robbie Williams - Be A Boy 2013 M4A+MP4 (1080p) x264 [VX][P2PDL]

Size 47.723 MB   19 seeders     Added 2013-02-04 19:21:02

Stream torrent
Starting‥ You need BitLord! Get it from 1BitLord.com
To download or stream you need BitLord. Visit them at BitLord.com
_________________________  Visit us at _________________________
  
http://p2pdl.com  ____________________________  http://p2pdl.com

 
image

Robbie Williams - Be A Boy M4A+MP4 (1080p) x264 [VX] [P2PDL]


                             1080p Full HD MP4 Video
                                        +
                             128 Kbps/VBR M4A Audio

General
Complete name                  : Robbie Williams - Be A Boy (1080p) x264 [VX] [P2PDL].mp4
Format                         : MPEG-4
Format profile                 : Base Media / Version 2
Codec ID                       : mp42
File size                      : 40.3 MiB
Duration                       : 3mn 51s
Overall bit rate mode          : Variable
Overall bit rate               : 1 464 Kbps

Video
Format                         : AVC
Format/Info                    : Advanced Video Codec
Width                          : 1 920 pixels
Height                         : 820 pixels
Display aspect ratio           : 2.35:1
Frame rate mode                : Constant
Frame rate                     : 25.000 fps
Stream size                    : 36.8 MiB (91%)
Writing library                : x264 core 129

Audio
ID                             : 2
Format                         : AAC
Bit rate mode                  : Variable
Bit rate                       : 124 Kbps
Channel(s)                     : 2 channels
Channel positions              : Front: L R
Sampling rate                  : 48.0 KHz
Stream size                    : 3.43 MiB (9%)

Subtitles                      : No

Screens:
 
image 
image

Thumbs:
 
image
------------------------------------------------------------------------

Notes:

* Recommended to use latest version VLC Media Player.
* Install shark007 codecs in case of any kind of problem in playback (For non-VLC Media Player users).
* Alternatively, install Core AVC codecs, the fastest decoder that there is coupled with Community Center Codec Pack and play on Windows Media Player Classic.

Greets to: VYTO, a2zRG, MusiK_KinG, Kuroyukihime, Caveman, Ash968, Neon, Masta, TorDigger and staff members at ExtraTorrent, TPB, H33T, KAT, 1337x, PublicHD, Ahashare, TorrentMafia, Limetorrents, BTScene, P2PDL, and all others

Encoder Notes: Looking For Early Access To Anything You Can Provide DVDScr, R5, DVDRips, BluRay, Direct Audio, Early Music
Releases, Seedboxes, Links, Dedicated Servers anything u can provide, Advance / Promo CDs/DVDs. If You Got anything to
offer contact me at "prg@hush.com".		
01 Robbie Williams - Be a Boy.m4a 5.175 MB
Cover.png 254.815 KB
Robbie Williams - Be A Boy (1080p) x264 [VX] [P2PDL].mp4 42.283 MB
Gathering some info...

Register and log in Isohunt and see no captcha anymore!

4000 symbols left
Hash 62F1368D5DAB5F2B1932D0896DE32552DFA1E24B

Related torrents for "Robbie Williams - Be A Boy 2013 M4A+MP4 (1080p) x264 [VX][P2PDL]"

Torrent search:

x264 fullhd 2013