imdb
rating

6.5
Wild Things

Wild Things (1998)

Crime, Mystery, Thriller, Romance

Full description
quality   x264 hd bd dvdrip h264

Wild Things 1998 720p Bluray anoXmous

Size 733.915 MB   9 seeders     Added 2013-02-04 21:40:54

Stream torrent
Starting‥ You need BitLord! Get it from 1BitLord.com
To download or stream you need BitLord. Visit them at BitLord.com
[color=red][b]Wild.Things.1998.720p.Bluray.x264.anoXmous[/b][/color]

----------------------------------------------------------------------------------------
[b]
Language : English
Subtitles: Swedish
[/b]
----------------------------------------------------------------------------------------

[color=blue][b]Screens made by Media Player Classic:[/b][/color]
http://www.imagebam.com/image/3dc1c9168517037

----------------------------------------------------------------------------------------

[color=blue][b]Info[/b][/color]

Format : MPEG-4
Format profile : Base Media
Codec ID : isom
File size : 700 MiB
Duration : 1h 54mn
Overall bit rate mode : Variable
Overall bit rate : 852 Kbps


[b]Video[/b]
ID : 1
Format : AVC
Format/Info : Advanced Video Codec
Format profile : High@L4.1
Format settings, CABAC : Yes
Format settings, ReFrames : 4 frames
Codec ID : avc1
Codec ID/Info : Advanced Video Coding
Duration : 1h 54mn
Bit rate : 780 Kbps
Maximum bit rate : 7 782 Kbps
Width : 1 280 pixels
Height : 528 pixels
Display aspect ratio : 2.40:1
Frame rate mode : Constant
Frame rate : 23.976 fps
Color space : YUV
Chroma subsampling : 4:2:0
Bit depth : 8 bits
Scan type : Progressive
Bits/(Pixel*Frame) : 0.048
Stream size : 640 MiB (91%)
Writing library : x264 core 120 r2120 0c7dab9

[b]Audio[/b]
ID : 2
Format : AAC
Format/Info : Advanced Audio Codec
Format profile : LC
Codec ID : 40
Duration : 1h 54mn
Bit rate mode : Variable
Bit rate : 69.7 Kbps
Maximum bit rate : 108 Kbps
Channel(s) : 2 channels
Channel positions : Front: L R
Sampling rate : 48.0 KHz 
Compression mode : Lossy
Stream size : 57.3 MiB (8%)
----------------------------------------------------------------------------------------

http://www.imdb.com/title/tt0120890/

----------------------------------------------------------------------------------------

This work very fine with PSP and XBOX	

----------------------------------------------------------------------------------------	
iNfO.txt 2.232 KB
Wild.Things.1998.720p.Bluray.x264.anoXmous.mp4 733.854 MB
Wild.Things.1998.720p.Bluray.x264.anoXmous_swe.srt 58.768 KB
Gathering some info...

Register and log in Isohunt and see no captcha anymore!

4000 symbols left
Hash ED362B794F4EC9A399E7662DE2C5CC981D6C694A

Related torrents for "Wild Things 1998 720p Bluray anoXmous"

Torrent search:

1998 hd bd