imdb
rating

6.9
Warm Bodies

Warm Bodies (2013)

Comedy, Horror, Romance

Full description
quality   bd dvdrip x264 telesync

Warm Bodies 2013 FRENCH DVDRiP XViD - ViP3R

Size 735.162 MB   0 seeders     Added 2013-02-04 22:02:16

Stream torrent
Starting‥ You need BitLord! Get it from 1BitLord.com
To download or stream you need BitLord. Visit them at BitLord.com
Warm Bodies 2013 FRENCH DVDRiP XViD - ViP3R\r\n\r\n\r\n\r\nMovie info :\r\nGENRE............:  Comedy | Horror | Romance \r\nIMDB RATING......:  7,4/10 from 5.416 users   Metascore: 66/100 \r\n\r\n\r\nSTATS:\r\n\r\nVideo\r\nID                               : 0\r\nFormat                           : MPEG-4 Visual\r\nFormat profile                   : Advanced Simple@L5\r\nFormat settings, BVOP            : 2\r\nFormat settings, QPel            : No\r\nFormat settings, GMC             : No warppoints\r\nFormat settings, Matrix          : Default (MPEG)\r\nMuxing mode                      : Packed bitstream\r\nCodec ID                         : XVID\r\nCodec ID/Hint                    : XviD\r\nDuration                         : 1h 37mn\r\nBit rate                         : 986 Kbps\r\nWidth                            : 720 pixels\r\nHeight                           : 320 pixels\r\nDisplay aspect ratio             : 2.25:1\r\nFrame rate                       : 29.970 fps\r\nColor space                      : YUV\r\nChroma subsampling               : 4:2:0\r\nBit depth                        : 8 bits\r\nScan type                        : Progressive\r\nCompression mode                 : Lossy\r\nBits/(Pixel*Frame)               : 0.243\r\nStream size                      : 647 MiB (92%)\r\nWriting library                  : XviD 64\r\n\r\nAudio\r\n\r\nFormat                           : MPEG Audio\r\nFormat version                   : Version 1\r\nFormat profile                   : Layer 3\r\nMode                             : Joint stereo\r\nMode extension                   : MS Stereo\r\nCodec ID                         : 55\r\nCodec ID/Hint                    : MP3\r\nDuration                         : 1h 37mn\r\nBit rate mode                    : Constant\r\nBit rate                         : 128 Kbps\r\nChannel(s)                       : 2 channels\r\nSampling rate                    : 48.0 KHz\r\nCompression mode                 : Lossy\r\nStream size                      : 56 MiB (7%)\r\nAlignment                        : Split accross interleaves\r\nInterleave, duration             : 33 ms (1.00 video frame)\r\nInterleave, preload duration     : 500 ms\r\n\r\n\r\n\r\n\r\n\r\n\r\n\r\n\r\n\r\n
Warm Bodies 2013 FRENCH DVDRiP XViD - ViP3R/Screenshot01 .png 39.822 KB
Warm Bodies 2013 FRENCH DVDRiP XViD - ViP3R/Screenshot02 .png 44.498 KB
Warm Bodies 2013 FRENCH DVDRiP XViD - ViP3R/Screenshot03 .png 23.821 KB
Gathering some info...

Register and log in Isohunt and see no captcha anymore!

4000 symbols left
Hash c795e1548892a5df580754f9af49abd5c9e86e4a

Related torrents for "Warm Bodies 2013 FRENCH DVDRiP XViD - ViP3R"

Torrent search:

dvdrip french 2013