Prometheus: The Life of Balzac

Prometheus: The Life of Balzac (1975)

Drama

Full description

Prometheus (HD 720p) m4v

Size 3.062 GB   6 seeders     Added 2013-02-04 23:37:44

Stream torrent
Starting‥ You need BitLord! Get it from 1BitLord.com
To download or stream you need BitLord. Visit them at BitLord.com
Complete name                            : Prometheus (HD 720p).m4v
Format                                   : MPEG-4
Format profile                           : Base Media / Version 2
Codec ID                                 : mp42
File size                                : 2.85 GiB
Duration                                 : 2h 3mn
Overall bit rate mode                    : Variable
Overall bit rate                         : 3 299 Kbps
Movie name                               : Prometheus
Performer                                : Noomi Rapace, Michael Fassbender, Charlize Theron, Idris Elba, Guy Pearce, Patrick Wilson, Logan Marshall-Green, Rafe Spall, Sean Harris, Kate Dickie, Emun Elliott, Benedict Wong, Lucy Hutchinson, Branwell Donaghey, Vladimir Furdik, C.C. Smiff, Shane Steyn
Genre                                    : Action, Horror, Science Fiction, Thriller
Recorded date                            : 2012-06-08
Encoded date                             : UTC 2012-10-15 18:38:26
Tagged date                              : UTC 2012-11-10 20:50:29
Writing application                      : HandBrake 5016svn 2012101501
Cover                                    : Yes
desc                                     : A team of explorers discover a clue to the origins of mankind on Earth, leading them on a journey to the darkest corners of the universe. There, they must fight a terrifying battle to save the future of the human race.
Video #1
ID                                       : 1
Format                                   : AVC
Format/Info                              : Advanced Video Codec
Format profile                           : High@L3.1
Format settings, CABAC                   : Yes
Format settings, ReFrames                : 4 frames
Codec ID                                 : avc1
Codec ID/Info                            : Advanced Video Coding
Duration                                 : 2h 3mn
Bit rate mode                            : Variable
Bit rate                                 : 2 453 Kbps
Width                                    : 1 280 pixels
Height                                   : 528 pixels
Display aspect ratio                     : 2.40:1
Frame rate mode                          : Variable
Frame rate                               : 23.976 fps
Minimum frame rate                       : 22.613 fps
Maximum frame rate                       : 90 000.000 fps
Color space                              : YUV
Chroma subsampling                       : 4:2:0
Bit depth                                : 8 bits
Scan type                                : Progressive
Bits/(Pixel*Frame)                       : 0.151
Stream size                              : 2.12 GiB (74%)
Writing library                          : x264 core 125
Encoding settings                        : cabac=1 / ref=4 / deblock=1:0:0 / analyse=0x3:0x133 / me=umh / subme=10 / psy=1 / psy_rd=1.00:0.15 / mixed_ref=1 / me_range=32 / chroma_me=1 / trellis=2 / 8x8dct=1 / cqm=0 / deadzone=21,11 / fast_pskip=1 / chroma_qp_offset=-3 / threads=12 / lookahead_threads=2 / sliced_threads=0 / nr=0 / decimate=1 / interlaced=0 / bluray_compat=0 / constrained_intra=0 / bframes=4 / b_pyramid=2 / b_adapt=2 / b_bias=0 / direct=3 / weightb=1 / open_gop=0 / weightp=2 / keyint=240 / keyint_min=24 / scenecut=40 / intra_refresh=0 / rc_lookahead=60 / rc=crf / mbtree=1 / crf=18.0 / qcomp=0.60 / qpmin=3 / qpmax=69 / qpstep=4 / ip_ratio=1.40 / aq=1:1.00
Encoded date                             : UTC 2012-10-15 18:38:26
Tagged date                              : UTC 2012-10-15 21:11:29
Color primaries                          : BT.709
Transfer characteristics                 : BT.709
Matrix coefficients                      : BT.709
Audio #1
ID                                       : 2
Format                                   : AAC
Format/Info                              : Advanced Audio Codec
Format profile                           : LC
Codec ID                                 : 40
Duration                                 : 2h 3mn
Bit rate mode                            : Variable
Bit rate                                 : 197 Kbps
Maximum bit rate                         : 334 Kbps
Channel(s)                               : 2 channels
Channel positions                        : Front: L R
Sampling rate                            : 48.0 KHz
Compression mode                         : Lossy
Delay relative to video                  : 83ms
Stream size                              : 174 MiB (6%)
Language                                 : English
Encoded date                             : UTC 2012-10-15 18:38:26
Tagged date                              : UTC 2012-10-15 21:11:29
Audio #2
ID                                       : 3
Format                                   : AC-3
Format/Info                              : Audio Coding 3
Mode extension                           : CM (complete main)
Format settings, Endianness              : Big
Codec ID                                 : ac-3
Duration                                 : 2h 3mn
Bit rate mode                            : Constant
Bit rate                                 : 640 Kbps
Channel(s)                               : 6 channels
Channel positions                        : Front: L C R, Side: L R, LFE
Sampling rate                            : 48.0 KHz
Bit depth                                : 16 bits
Compression mode                         : Lossy
Delay relative to video                  : 83ms
Stream size                              : 567 MiB (19%)
Language                                 : English
Encoded date                             : UTC 2012-10-15 18:38:26
Tagged date                              : UTC 2012-10-15 21:11:29		
Prometheus (HD 720p).m4v 3.062 GB
Gathering some info...

Register and log in Isohunt and see no captcha anymore!

4000 symbols left
Hash 8BBB7034DF1BA14815E773DD0D98B97A3B01C145

Related torrents for "Prometheus (HD 720p) m4v"

Torrent search:

hd