Hansel & Gretel Witch Hunters (2013) DVD Screener XViD

Size 759.813 MB   0 seeders     Added 2013-02-05 01:23:28

To download or stream you need BitLord. Visit them at BitLord.com
Hansel & Gretel Witch Hunters (2013) DVD Screener XViD



Format                                   : mkv
Format/Info                              : Audio Video Interleave
File size                                : 699 MiB
Duration                                 : 1h 28mn
Overall bit rate                         : 841 Kbps
Writing application                      : Lavf54.3.100

Video
ID                                       : 0
Format                                   : MPEG-4 Visual
Format profile                           : Simple@L3
Format settings, BVOP                    : No
Format settings, QPel                    : No
Format settings, GMC                     : No warppoints
Format settings, Matrix                  : Default (H.263)
Codec ID                                 : XVID
Codec ID/Hint                            : XviD
Duration                                 : 1h 28mn
Bit rate                                 : 750 Kbps
Width                                    : 640 pixels
Height                                   : 272 pixels
Display aspect ratio                     : 2.35:1
Frame rate                               : 25.000 fps
Color space                              : YUV
Chroma subsampling                       : 4:2:0
Bit depth                                : 8 bits
Scan type                                : Progressive
Compression mode                         : Lossy
Bits/(Pixel*Frame)                       : 0.172
Stream size                              : 694 MiB (100%)
Writing library                          : XviD 64

Audio
ID                                       : 1
Format                                   : AC-3
Format/Info                              : Audio Coding 3
Mode extension                           : CM (complete main)
Format settings, Endianness              : Big
Codec ID                                 : 2000
Duration                                 : 1h 28mn
Bit rate mode                            : Constant
Bit rate                                 : 80.0 Kbps
Channel(s)                               : 2 channels
Channel positions                        : Front: L R
Sampling rate                            : 48.0 KHz
Bit depth                                : 16 bits
Compression mode                         : Lossy
Stream size                              : 67.0 MiB (10%)
Alignment                                : Aligned on interleaves
Interleave, duration                     : 32 ms (0.80 video frame)
Hansel & Gretel Witch Hunters (2013) DVD Screener XViD/Hansel & Gretel Witch Hunters (2013) DVD Screener XViD/Hansel & Gretel Witch Hunters (2013) DVD Screener XViD.rar 733.308 MB
Hansel & Gretel Witch Hunters (2013) DVD Screener XViD/Hansel & Gretel Witch Hunters (2013) DVD Screener XViD/NFO.nfo 2.551 KB
Hansel & Gretel Witch Hunters (2013) DVD Screener XViD/Hansel & Gretel Witch Hunters (2013) DVD Screener XViD/Torrent downloaded from Demonoid.me.txt 678 B
Gathering some info...

Register and log in Isohunt and see no captcha anymore!

4000 symbols left
Hash f0612a861776c067571d15a59f72a050619ca89a

Related torrents for "Hansel & Gretel Witch Hunters (2013) DVD Screener XViD"

Torrent search:

2013