Wild

Wild

Documentary

Full description

Joven.y.Alocada.[Young.and.Wild].2012.DVDRip.AC3.HORiZON-ArtSubs

Size 1.468 GB   364 seeders     Added 2013-02-05 02:54:55

Stream torrent
Starting‥ You need BitLord! Get it from 1BitLord.com
10
To download or stream you need BitLord. Visit them at BitLord.com
Title: 
Young and Wild Aka Joven y Alocada
Country: 
Chile/2012
Language: 
Spanish
Subtitle: 
Dutch
Director:
Marialy Rivas
Writers:
Marialy Rivas, Pedro Peirano
Stars:
Alicia Rodríguez, Aline Küppenheim, María Gracia Omegna 
Sumary:
Daniela, raised in the bosom of a strict Evangelical family and recently unmasked as a fornicator by her shocked parents, struggles to find her own path to spiritual harmony. 
Trivia:
Won World Cinema Screenwriting Award, in Sundance Film Festival 2012
Imdb: http://www.imdb.com/title/tt2125698/?ref_=sr_1
Trailer: http://www.kino-zeit.de/filme/trailer/joven-y-alocada
Media Info:
General
Complete name                            : Joven.y.Alocada.[Young.and.Wild].2012.DVDRip.AC3.HORiZON-ArtSubs
Format                                   : AVI
Format/Info                              : Audio Video Interleave
File size                                : 1.37 GiB
Duration                                 : 1h 31mn
Overall bit rate                         : 2 146 Kbps
Writing application                      : FairUse Wizard - http://fairusewizard.com
Writing library                          : The best and REALLY easy backup tool
Video
ID                                       : 0
Format                                   : AVC
Format/Info                              : Advanced Video Codec
Format profile                           : Main@L3.0
Format settings, CABAC                   : Yes
Format settings, ReFrames                : 2 frames
Codec ID                                 : H264
Duration                                 : 1h 31mn
Bit rate                                 : 2 010 Kbps
Width                                    : 712 pixels
Height                                   : 376 pixels
Display aspect ratio                     : 1.894
Frame rate                               : 25.000 fps
Color space                              : YUV
Chroma subsampling                       : 4:2:0
Bit depth                                : 8 bits
Scan type                                : Progressive
Bits/(Pixel*Frame)                       : 0.300
Stream size                              : 1.28 GiB (94%)
Writing library                          : x264 core 93 r1538bm bd72d46
Encoding settings                        : cabac=1 / ref=1 / deblock=1:0:0 / analyse=0x1:0x131 / me=hex / subme=4 / psy=1 / psy_rd=0.00:0.00 / mixed_ref=0 / me_range=16 / chroma_me=0 / trellis=1 / 8x8dct=0 / cqm=0 / deadzone=21,11 / fast_pskip=1 / chroma_qp_offset=0 / threads=2 / sliced_threads=1 / slices=2 / nr=0 / decimate=1 / interlaced=0 / constrained_intra=0 / bframes=2 / b_pyramid=0 / b_adapt=1 / b_bias=0 / direct=1 / wpredb=1 / wpredp=2 / keyint=250 / keyint_min=25 / scenecut=40 / intra_refresh=0 / rc=2pass / mbtree=0 / bitrate=2010 / ratetol=1.0 / qcomp=0.60 / qpmin=10 / qpmax=51 / qpstep=4 / cplxblur=20.0 / qblur=0.5 / ip_ratio=1.40 / pb_ratio=1.30 / aq=1:1.00
Audio
ID                                       : 1
Format                                   : MPEG Audio
Format version                           : Version 1
Format profile                           : Layer 3
Mode                                     : Joint stereo
Mode extension                           : MS Stereo
Codec ID                                 : 55
Codec ID/Hint                            : MP3
Duration                                 : 1h 31mn
Bit rate mode                            : Constant
Bit rate                                 : 128 Kbps
Channel(s)                               : 2 channels
Sampling rate                            : 48.0 KHz
Compression mode                         : Lossy
Stream size                              : 83.5 MiB (6%)
Alignment                                : Aligned on interleaves
Interleave, duration                     : 40 ms (1.00 video frame)
Interleave, preload duration             : 504 ms
Writing library                          : LAME3.97 
Encoding settings                        : -m j -V 4 -q 2 -lowpass 17 -b 128
Joven.y.Alocada.[Young.and.Wild].2012.DVDRip.AC3.HORiZON-ArtSubs.avi 1.468 GB
Joven.y.Alocada.[Young.and.Wild].2012.DVDRip.AC3.HORiZON-ArtSubs.dutch.srt 71.938 KB
Gathering some info...

Register and log in Isohunt and see no captcha anymore!

4000 symbols left
Hash 5530D3E5542DB4C5877907493FEAFC36285A5CAD

Related torrents for "Joven.y.Alocada.[Young.and.Wild].2012.DVDRip.AC3.HORiZON-ArtSubs"

Torrent search:

dvdrip 2012