imdb
rating

8.6
Baraka

Baraka (1992)

Documentary

Full description
quality   dvdr x264 hd bd fullhd dvdrip

Baraka (1992)[BDRip.x264.AC3][Napisy PL-Eng][Eng]

Size 2.922 GB   0 seeders     Added 2013-02-05 03:01:01

Stream torrent
Starting‥ You need BitLord! Get it from BitLord.com
To download or stream you need BitLord. Visit them at BitLord.com
[center][img]image[/img]

[i][b]Please help in Seeding. THX.[/b][/i]

gatunek: Dokumentalny
produkcja: USA
premiera: 10 czerwca 2005 (Polska) 15 września 1992 (świat)
reżyseria: Ron Fricke
scenariusz:Constantine Nicholas
muzyka: Lisa Gerrard , Dead Can Dance
zdjęcia: Ron Fricke
Czas:01:37:49

Opis Filmu:

A collection of expertly photographed scenes of human life and religion. 

Słowo "baraka" pochodzi ze starodawnego języka Sufi i oznacza "oddech".

Niezwykły film dokumentalny, traktujący o nieodłącznych etapach życia, 
jakimi są narodziny i śmierć. Akcja dzieje się w różnych miejscach na 
ziemi- dzięki temu widz może poznać ich naturalne walory . Przedstawiona 
jest tu także niejako analiza negatywnych zachowań człowieka- jego okrucieństwo, 
niejednokrotnie prowadzące do autodestrukcji.

[img]image[/img]
[img]image[/img]
[img]image[/img]
[img]image[/img]

Obsada:

Ludzie tego Świata

Dane Techniczne:

Baraka (1992)-alE13.mkv
Format : Matroska
File size : 2.72 GiB
Duration : 1h 37mn
Overall bit rate : 3 976 Kbps
Movie name : Baraka (1992)-alE13
Encoded date : UTC 2013-02-04 19:21:41
Writing application : mkvmerge v5.8.0
Writing library : libebml v1.2.3 + libmatroska v1.3.0

Video
ID : 1
Format : AVC
Format/Info : Advanced Video Codec
Format profile : Main@L4.0
Format settings, CABAC : Yes
Format settings, ReFrames : 2 frames
Muxing mode : Container profile=Unknown@4.0
Codec ID : V_MPEG4/ISO/AVC
Duration : 1h 37mn
Bit rate : 3 257 Kbps
Nominal bit rate : 3 500 Kbps
Width : 1 920 pixels
Height : 880 pixels
Display aspect ratio : 2.2:1
Frame rate mode : Variable
Frame rate : 23.976 fps
Color space : YUV
Chroma subsampling : 4:2:0
Bit depth : 8 bits
Scan type : Progressive
Bits/(Pixel*Frame) : 0.080
Stream size : 2.23 GiB (82%)
Writing library : x264 core 112 r1834 a51816a

Audio
ID : 5
Format : AC-3
Format/Info : Audio Coding 3
Mode extension : CM (complete main)
Muxing mode : Header stripping
Codec ID : A_AC3
Duration : 1h 37mn
Bit rate mode : Constant
Bit rate : 640 Kbps
Channel(s) : 6 channels
Channel positions : Front: L C R, Side: L R, LFE
Sampling rate : 48.0 KHz
Bit depth : 16 bits
Stream size : 448 MiB (16%)
Language : English

Text #1
ID : 2
Format : UTF-8
Codec ID : S_TEXT/UTF8
Codec ID/Info : UTF-8 Plain Text
Language : English

Text #2
ID : 3
Format : VobSub
Codec ID : S_VOBSUB
Codec ID/Info : The same subtitle format used on DVDs
Language : Polish

Text #3
ID : 4
Format : VobSub
Codec ID : S_VOBSUB
Codec ID/Info : The same subtitle format used on DVDs
Language : English

Menu
00:00:00.000 : :Chapter 01
00:03:33.296 : :Chapter 02
00:06:20.838 : :Chapter 03
00:11:58.592 : :Chapter 04
00:15:52.117 : :Chapter 05
00:21:48.932 : :Chapter 06
00:24:08.530 : :Chapter 07
00:26:55.947 : :Chapter 08
00:30:02.133 : :Chapter 09
00:33:35.179 : :Chapter 10
00:38:26.846 : :Chapter 11
00:40:56.287 : :Chapter 12
00:47:52.035 : :Chapter 13
00:51:36.093 : :Chapter 14
00:55:45.592 : :Chapter 15
00:58:52.487 : :Chapter 16
01:02:07.515 : :Chapter 17
01:06:47.545 : :Chapter 18
01:12:49.281 : :Chapter 19
01:19:39.858 : :Chapter 20
01:25:29.582 : :Chapter 21
01:30:51.320 : :Chapter 22[/center]
1.jpg 113.033 KB
2.jpg 260.429 KB
22.jpg 183.926 KB
Gathering some info...

Register and log in Isohunt and see no captcha anymore!

4000 symbols left
Hash E45D6E2D364AE3D2B9FAC135C7FD53DF25103DAD

Related torrents for "Baraka (1992)[BDRip.x264.AC3][Napisy PL-Eng][Eng]"

Torrent search:

english 1992 x264 bd