imdb
rating

7.1
The Master

The Master (2012)

Drama

Full description
quality   dvdr dvdrip

The Master (2012) 720p MKV x264 AC3 BRrip [Pioneer]

Size 1.441 GB   4 seeders     Added 2013-02-05 04:20:54

Stream torrent
Starting‥ You need BitLord! Get it from BitLord.com
To download or stream you need BitLord. Visit them at BitLord.com
[IMG]image[/IMG]


A 1950s-set drama centered on the relationship between a charismatic intellectual known as "the Master" whose faith-based organization begins to catch on in America, and a young drifter who becomes his right-hand man.

Starring: Amy Adams, Rami Malek, Philip Seymour Hoffman, David Warshofsky, Jesse Plemons, Laura Dern, Joaquin Phoenix
Director: Paul Thomas Anderson


http://www.imdb.com/title/tt1560747/


http://www.youtube.com/watch?v=fJ1O1vb9AUU



[IMG]image[/IMG]
[IMG]image[/IMG]
[IMG]image[/IMG]
[IMG]image[/IMG]
[IMG]image[/IMG]
[IMG]image[/IMG]




General
Unique ID: 162420535317927699803403732601827075569 (0x7A310EA8473219ACD39CFE6F80B1A5F1)
Complete name: D:\The Master (2012) 720p MKV x264 AC3 BRrip [Pioneer]
Format: Matroska
Format version: Version 2
File size: 1.34 GiB
Duration: 2h 17mn
Overall bit rate: 1 397 Kbps
Writing application: HandBrake 0.9.8
Writing library: libmkv 0.6.5

Video
ID: 1
Format: AVC
Format/Info: Advanced Video Codec
Format profile: High@L3.1
Format settings, CABAC: Yes
Format settings, ReFrames: 4 frames
Codec ID: V_MPEG4/ISO/AVC
Duration: 2h 17mn
Bit rate: 1 200 Kbps
Width: 1 274 pixels
Height: 688 pixels
Display aspect ratio: 1.85:1
Frame rate mode: Constant
Frame rate: 23.976 fps
Color space: YUV
Chroma subsampling: 4:2:0
Bit depth: 8 bits
Scan type: Progressive
Bits/(Pixel*Frame): 0.057
Stream size: 1.13 GiB (84%)
Writing library: x264 core 120
Language: English
Default: Yes
Forced: No
Color primaries: BT.709
Transfer characteristics: BT.709
Matrix coefficients: BT.709

Audio
ID: 2
Format: AC-3
Format/Info: Audio Coding 3
Mode extension: CM (complete main)
Format settings, Endianness: Big
Codec ID: A_AC3
Duration: 2h 17mn
Bit rate mode: Constant
Bit rate: 192 Kbps
Channel(s): 6 channels
Channel positions: Front: L C R, Side: L R, LFE
Sampling rate: 48.0 KHz
Bit depth: 16 bits
Compression mode: Lossy
Stream size: 189 MiB (14%)
Default: Yes
Forced: No
The Master (2012) 720p MKV x264 AC3 BRrip [Pioneer].mkv 1.441 GB
Gathering some info...

Register and log in Isohunt and see no captcha anymore!

4000 symbols left
Hash AB1C184BC765524211F31D28041A7060F3172F0C

Related torrents for "The Master (2012) 720p MKV x264 AC3 BRrip [Pioneer]"

Torrent search:

x264 hd 2012 bd