Bullet to the Head (2013) DVDRIP V2 AC3 LINE SOURCE - CRISS

Size 754.087 MB   0 seeders     Added 2013-02-05 04:36:47

Stream torrent
Starting‚Ä• You need BitLord! Get it from 1BitLord.com
To download or stream you need BitLord. Visit them at BitLord.com
                                _____  _____  _____ 
                                |   | ||   __||     |
                                | | | ||   __||  |  |
                                |_|___||__|   |_____|
             _____       _  _       _          _               _    _        
            | __  | _ _ | || | ___ | |_       | |_  ___       | |_ | |_  ___ 
            | __ -|| | || || || -_||  _|      |  _|| . |      |  _||   || -_|
            |_____||___||_||_||___||_|        |_|  |___|      |_|  |_|_||___|         
                                _____              _             
                               |  |  | ___  ___  _| |               
                               |     || -_|| .|| . |            
                               |__|__||___||__,||___|           
---------------------------------------------------------------------------------------------------
     [RELEASE INFORMATION]             
RELEASE.NAME...: Bullet to the Head                           
IMDB.LINK......: http://www.imdb.com/title/tt1308729
IMDB.RATE......: 7.1/10 from 1,253 users                                      
FILM.GENRE.....: Action | Crime | Thriller                                                                  
RUN.TIME.......: 1.31.32                                                         
SIZE...........: 1,35 GB                                                                                   
CONTAINER......: AVI                                                                                    
VIDEO..........: XviD High@L5.0 BVOP = 2                                                             
ENCODED.LIBRARY: Virtualdub v1.50                                 
ASPECT.RATIO...: 16:9                            
Video    
ID                               : 1    
Format                           : AVC       
Format/Info                      : Advanced Video Codec
Format profile                   : High@L3.1    
Format settings, CABAC           : Yes
Format settings, ReFrames        : 5 frames   
Codec ID                         : V_MPEG4/ISO/AVC
Bit rate                         : 5 180 Kbps
Width                            : 1 280 pixels
Height                           : 688 pixels
Display aspect ratio             : 1.860
Frame rate                       : 24.000 fps
Color space                      : YUV
Chroma subsampling               : 4:2:0
Bit depth                        : 8 bits
Scan type                        : Progressive
Bits/(Pixel*Frame)               : 0.245
Stream size                      : 3.29 GiB (75%)
Writing library                  : x264 core 98 r1649 c54c47d
Audio
ID                               : 2
Format                           : DTS
Format/Info                      : Digital Theater Systems
Codec ID                         : A_DTS
Duration                         : 1h 33mn
Bit rate mode                    : Constant
Bit rate                         : 1 510 Kbps
Channel(s)                       : 6 channels
Channel positions                : Front: L C R, Side: L R, LFE
Sampling rate                    : 48.0 KHz
Bit depth                        : 16 bits
Compression mode                 : Lossy
Stream size                      : 1 009 MiB (23%)
Language                         : English
----------------------------------------------------------------------------
    [PLAYBACK RECOMMENDATION]  
PC.USERS.......: Use VLC Media Player
--------------------------------------------------------------------------		
Bullet to the Head (2013) DVDRIP V2 AC3 LINE SOURCE - CRISS.avi 754.086 MB
read.txt 549 B
Gathering some info...

Register and log in Isohunt and see no captcha anymore!

4000 symbols left
Hash E8583E2090CB2C914B61B5D205E87DC2F1D56E70

Related torrents for "Bullet to the Head (2013) DVDRIP V2 AC3 LINE SOURCE - CRISS"

Torrent search:

dvdrip 2013