imdb
rating

7.9
Elementary

Elementary (2012)

Drama, Mystery, Crime

Full description

Elementary 1x14 fastsub vostfr mp4

Size 253.5 MB   0 seeders     Added 2013-02-05 07:39:47

Stream torrent
Starting‥ You need BitLord! Get it from BitLord.com
To download or stream you need BitLord. Visit them at BitLord.com
Elementary 1x14 fastsub vostfr.mp4
Format                           : MPEG-4
Format profile                   : Base Media
Codec ID                         : isom
File size                        : 242 MiB
Duration                         : 43mn 31s
Overall bit rate                 : 777 Kbps
Encoded date                     : UTC 2013-02-04 23:16:02
Tagged date                      : UTC 2013-02-04 23:16:02

Video
ID                               : 1
Format                           : AVC
Format/Info                      : Advanced Video Codec
Format profile                   : High@L3.1
Format settings, CABAC           : Yes
Format settings, ReFrames        : 5 frames
Codec ID                         : avc1
Codec ID/Info                    : Advanced Video Coding
Duration                         : 43mn 31s
Bit rate mode                    : Variable
Bit rate                         : 645 Kbps
Maximum bit rate                 : 17.5 Mbps
Width                            : 720 pixels
Height                           : 404 pixels
Display aspect ratio             : 16:9
Frame rate mode                  : Constant
Frame rate                       : 23.976 fps
Color space                      : YUV
Chroma subsampling               : 4:2:0
Bit depth                        : 8 bits
Scan type                        : Progressive
Bits/(Pixel*Frame)               : 0.092
Stream size                      : 201 MiB (83%)
Title                            : Elementary 1x14 fastsub vostfr
Writing library                  : x264 core 125 r2208 d9d2288
Encoding settings                : cabac=1 / ref=5 / deblock=1:0:0 / analyse=0x3:0x113 / me=umh / subme=8 / psy=1 / psy_rd=1.00:0.00 / mixed_ref=1 / me_range=16 / chroma_me=1 / trellis=1 / 8x8dct=1 / cqm=0 / deadzone=21,11 / fast_pskip=1 / chroma_qp_offset=-2 / threads=12 / lookahead_threads=2 / sliced_threads=0 / nr=0 / decimate=1 / interlaced=0 / bluray_compat=0 / constrained_intra=0 / bframes=3 / b_pyramid=2 / b_adapt=2 / b_bias=0 / direct=3 / weightb=1 / open_gop=0 / weightp=2 / keyint=240 / keyint_min=24 / scenecut=40 / intra_refresh=0 / rc_lookahead=50 / rc=crf / mbtree=1 / crf=19.0 / qcomp=0.60 / qpmin=0 / qpmax=69 / qpstep=4 / vbv_maxrate=17500 / vbv_bufsize=17500 / crf_max=0.0 / nal_hrd=vbr / ip_ratio=1.40 / aq=1:1.00
Encoded date                     : UTC 2013-02-04 23:16:02
Tagged date                      : UTC 2013-02-04 23:16:13
Matrix coefficients              : BT.709-5, BT.1361, IEC 61966-2-4 709, SMPTE RP177

Audio
ID                               : 2
Format                           : AAC
Format/Info                      : Advanced Audio Codec
Format version                   : Version 4
Format profile                   : LC
Codec ID                         : 40
Duration                         : 43mn 31s
Bit rate mode                    : Variable
Bit rate                         : 128 Kbps
Maximum bit rate                 : 134 Kbps
Channel(s)                       : 2 channels
Channel positions                : Front: L R
Sampling rate                    : 48.0 KHz
Compression mode                 : Lossy
Stream size                      : 39.8 MiB (16%)
Encoded date                     : UTC 2013-02-04 23:16:11
Tagged date                      : UTC 2013-02-04 23:16:13

		
Elementary 1x14 fastsub vostfr.mp4 253.5 MB
Gathering some info...

Register and log in Isohunt and see no captcha anymore!

4000 symbols left
Hash D285ACA7758BB44111475378AFCBF34EBEAD8B67

Related torrents for "Elementary 1x14 fastsub vostfr mp4"

Torrent search:

episode 14