imdb
rating

6.2
Chinese Zodiac

Chinese Zodiac (2012)

Action, Adventure

Full description
quality   telesync cam hd web-rip x264 hdtv bd

Chinese.Zodiac.HDrip.dual audio.720p - DubsTeam

Size 1.283 GB   30 seeders     Added 2013-02-05 15:01:30

Stream torrent
Starting‥ You need BitLord! Get it from BitLord.com
10
To download or stream you need BitLord. Visit them at BitLord.com
Video
ID : 0
Format : AVC
Format/Info : Advanced Video Codec
Format profile : Main@L5.1
Format settings, CABAC : Yes
Format settings, ReFrames : 1 frame
Codec ID : H264
Duration : 2h 1mn
Bit rate : 1 204 Kbps
Width : 1 280 pixels
Height : 720 pixels
Display aspect ratio : 16:9
Frame rate : 15.000 fps
Color space : YUV
Chroma subsampling : 4:2:0
Bit depth : 8 bits
Scan type : Progressive
Bits/(Pixel*Frame) : 0.087
Stream size : 1.03 GiB (86%)

Audio
ID : 1
Format : MPEG Audio
Format version : Version 1
Format profile : Layer 3
Codec ID : 55
Codec ID/Hint : MP3
Duration : 2h 1mn
Bit rate mode : Constant
Bit rate : 192 Kbps
Channel(s) : 2 channels
Sampling rate : 44.1 KHz
Compression mode : Lossy
Stream size : 167 MiB (14%)
Alignment : Split accross interleaves
Interleave, duration : 67 ms (1.00 video frame)
Interleave, preload duration : 281 ms
Writing library : LAMELAME_MAJOR_VERSI
Chinese.Zodiac.HDrip.dual audio.720p - DubsTeam.avi 1.283 GB
Gathering some info...

Register and log in Isohunt and see no captcha anymore!

4000 symbols left
Hash 5F195A6844EE1F639A8BEEFC44D08317EEB57F7C

Related torrents for "Chinese.Zodiac.HDrip.dual audio.720p - DubsTeam"

Torrent search:

hd