imdb
rating

8.1
The Rules of the Game

The Rules of the Game (1939)

Comedy, Drama, Romance

Full description
quality   x264 hd bd fullhd

The Rules of the Game 1939 720p Bluray Eng Subs anoXmous

Size 733.276 MB   14 seeders     Added 2013-02-05 16:41:22

Stream torrent
Starting‥ You need BitLord! Get it from BitLord.com
To download or stream you need BitLord. Visit them at BitLord.com
[color=red][b]The.Rules.of.the.Game.1939.720p.Bluray.x264.anoXmous
[/b][/color]

----------------------------------------------------------------------------------------

[b]Language : French 
Subtitles: English[/b]

----------------------------------------------------------------------------------------

[color=blue][b]Screens made by Media Player Classic:[/b][/color]
http://www.imagebam.com/image/e9eb3c168301257

----------------------------------------------------------------------------------------

[color=blue][b]
Media Info
[/b][/color]
Format : MPEG-4
Format profile : Base Media
Codec ID : isom
File size : 699 MiB
Duration : 1h 46mn
Overall bit rate mode : Variable
Overall bit rate : 917 Kbps


[b]Video[/b]
ID : 1
Format : AVC
Format/Info : Advanced Video Codec
Format profile : High@L4.1
Format settings, CABAC : Yes
Format settings, ReFrames : 4 frames
Codec ID : avc1
Codec ID/Info : Advanced Video Coding
Duration : 1h 46mn
Bit rate : 879 Kbps
Maximum bit rate : 3 474 Kbps
Width : 1 280 pixels
Height : 966 pixels
Display aspect ratio : 4:3
Frame rate mode : Constant
Frame rate : 23.976 fps
Color space : YUV
Chroma subsampling : 4:2:0
Bit depth : 8 bits
Scan type : Progressive
Bits/(Pixel*Frame) : 0.030
Stream size : 670 MiB (96%)
Writing library : x264 core 120 r2120 0c7dab9


[b]Audio[/b]
ID : 2
Format : AAC
Format/Info : Advanced Audio Codec
Format profile : LC
Codec ID : 40
Duration : 1h 46mn
Bit rate mode : Variable
Bit rate : 35.4 Kbps
Maximum bit rate : 43.7 Kbps
Channel(s) : 1 channel
Channel positions : Front: C
Sampling rate : 48.0 KHz
Compression mode : Lossy
Stream size : 27.0 MiB (4%)

----------------------------------------------------------------------------------------

http://www.imdb.com/title/tt0031885/

----------------------------------------------------------------------------------------

This work very fine with PSP and XBOX

----------------------------------------------------------------------------------------
iNFo.txt 2.258 KB
The.Rules.of.the.Game.1939.720p.Bluray.x264.anoXmous.mp4 733.166 MB
The.Rules.of.the.Game.1939.720p.Bluray.x264.anoXmous_eng.srt 107.967 KB
Gathering some info...

Register and log in Isohunt and see no captcha anymore!

4000 symbols left
Hash 519ED61C6E1DE7A096EAE66A0435D1D4078AF5C2

Related torrents for "The Rules of the Game 1939 720p Bluray Eng Subs anoXmous"

Torrent search:

english subs hd 1939 bd