imdb
rating

9.2
Leyla ile Mecnun

Leyla ile Mecnun (2011)

Comedy, Drama

Full description

Leyla ile Mecnun 84. Bölüm [400p].mkv

Size 590.709 MB   0 seeders     Added 2013-02-05 17:21:54

Stream torrent
Starting‥ You need BitLord! Get it from BitLord.com
To download or stream you need BitLord. Visit them at BitLord.com
[code]Video
ID : 1
Format : AVC
Format/Info : Advanced Video Codec
Format profile : High@L3.0
Format settings, CABAC : Yes
Format settings, ReFrames : 4 frames
Muxing mode : Header stripping
Codec ID : V_MPEG4/ISO/AVC
Duration : 1h 23mn
Bit rate : 750 Kbps
Width : 720 pixels
Height : 400 pixels
Display aspect ratio : 16:9
Frame rate mode : Variable
Frame rate : 25.000 fps
Color space : YUV
Chroma subsampling : 4:2:0
Bit depth : 8 bits
Scan type : Progressive
Bits/(Pixel*Frame) : 0.104
Stream size : 437 MiB (78%)
Writing library : x264 core 120
Default : Yes
Forced : No

Audio
ID : 2
Format : AC-3
Format/Info : Audio Coding 3
Mode extension : CM (complete main)
Muxing mode : Header stripping
Codec ID : A_AC3
Duration : 1h 23mn
Bit rate mode : Constant
Bit rate : 192 Kbps
Channel(s) : 2 channels
Channel positions : Front: L R
Sampling rate : 48.0 KHz
Bit depth : 16 bits
Compression mode : Lossy
Stream size : 115 MiB (20%)
Default : Yes
Forced : No[/code]
Leyla ile Mecnun 84. Bölüm [400p].mkv 590.709 MB
Gathering some info...

Register and log in Isohunt and see no captcha anymore!

4000 symbols left
Hash A517BD19F3E39801DE1CB6510EF89246A507D0A4

Related torrents for "Leyla ile Mecnun 84. Bölüm [400p].mkv"