imdb
rating

6.6
Wyatt Earp

Wyatt Earp (1994)

Action, Drama, Western

Full description

Wyatt Earp 1994 720p Bluray anoXmous

Size 1.469 GB   13 seeders     Added 2013-02-05 20:20:54

Stream torrent
Starting‥ You need BitLord! Get it from 1BitLord.com
10
To download or stream you need BitLord. Visit them at BitLord.com
[color=red][b]Wyatt.Earp.1994.720p.Bluray.x264.anoXmous[/b][/color]

----------------------------------------------------------------------------------------
[b]
Language : English

Subtitles : 
English,Swedish,Norwegian,Danish,German,
French,Italian,Dutch,Portuguese
[/b]
----------------------------------------------------------------------------------------
 
[b]Screens made by Media Player Classic:[/b] 
http://www.imagebam.com/image/5b857a167444823

----------------------------------------------------------------------------------------

[color=blue][b]Info[/b][/color]

Format : MPEG-4
Format profile : Base Media
Codec ID : isom
File size : 1.37 GiB
Duration : 3h 10mn
Overall bit rate mode : Variable
Overall bit rate : 1 027 Kbps


[b]Video[/b]
ID : 1
Format : AVC
Format/Info : Advanced Video Codec
Format profile : High@L4.1
Format settings, CABAC : Yes
Format settings, ReFrames : 4 frames
Codec ID : avc1
Codec ID/Info : Advanced Video Coding
Duration : 3h 10mn
Bit rate : 956 Kbps
Maximum bit rate : 7 903 Kbps
Width : 1 280 pixels
Height : 528 pixels
Display aspect ratio : 2.40:1
Frame rate mode : Constant
Frame rate : 23.976 fps
Color space : YUV
Chroma subsampling : 4:2:0
Bit depth : 8 bits
Scan type : Progressive
Bits/(Pixel*Frame) : 0.059
Stream size : 1.27 GiB (93%)
Writing library : x264 core 120 r2120 0c7dab9


[b]Audio[/b]
ID : 2
Format : AAC
Format/Info : Advanced Audio Codec
Format profile : LC
Codec ID : 40
Duration : 3h 10mn
Bit rate mode : Variable
Bit rate : 67.8 Kbps
Maximum bit rate : 95.8 Kbps
Channel(s) : 2 channels
Channel positions : Front: L R
Sampling rate : 48.0 KHz 
Compression mode : Lossy
Stream size : 92.4 MiB (7%)

----------------------------------------------------------------------------------------

http://www.imdb.com/title/tt0111756/

----------------------------------------------------------------------------------------

 +++++++++ This work very fine with PSP and XBOX :) ++++++++++	

----------------------------------------------------------------------------------------

iNfO.txt 3.795 KB
Wyatt.Earp.1994.720p.Bluray.x264.anoXmous.mp4 1.468 GB
Wyatt.Earp.1994.720p.Bluray.x264.anoXmous_dan.srt 100.209 KB
Gathering some info...

Register and log in Isohunt and see no captcha anymore!

4000 symbols left
Hash 56F588FCAC37C7AE6B563B80F0CFB7A373FAABA5

Related torrents for "Wyatt Earp 1994 720p Bluray anoXmous"

Torrent search:

1994 hd bd