imdb
rating

4.9
Do Not Disturb

Do Not Disturb (2012)

Comedy, Romance

Full description
quality   dvdrip x264 hd bd fullhd

Do.Not.Disturb.2012.DVDRip.AC3.XviD.HORiZON-ArtSubs Verified

Size 1.466 GB   8 seeders     Added 2013-02-05 20:54:07

Stream torrent
Starting‥ You need BitLord! Get it from BitLord.com
To download or stream you need BitLord. Visit them at BitLord.com
Title: 
Do Not Disturb

Country: 
France/2012

Language: 
French

No Subtitle

Director:
Yvan Attal

Writers:
Yvan Attal, Olivier Lécot

Stars:
François Cluzet, Yvan Attal, Laetitia Casta, Charlotte Gainsbourg, Asia Argento 

Synopsis:
When Jeff unexpectedly shows up on Ben's doorstep at 2am, the two buddies immediately fall into each other’s arms. Since their college days, they've taken very different paths. Jeff is still the wild man, a serial lover, an artist and eternal vagabond who's never stopped roaming the world. As for Ben, he settled down with chilled-out and wonderful Anna; they bought a small and comfortable house in the suburbs and started trying to make a baby.
But this quiet life is disrupted by the whirlwind that is Jeff, especially when he takes Ben to a wild party, from which they return at dawn, having made a booze decision that is about to turn all of their lives upside down. Witnessed by Lily and Monica, their sexy party hosts, Ben and Jeff’s project looks much scarier in the hangover light of day… but neither has the guts to be the wimp who pulls out!
The provocative, hot and funny new film by award-winning French director Yvan Attal.


Trivia: This is the French remake of the american indie film "Humpday" (2009), from Lynn Sheldon. Toronto International Film Festival 2012,
in Official Selection


Imdb: 
http://www.imdb.com/title/tt2193782/

Trailer: 
http://www.bandes-annonces.fr/film-2012/bande-annonce-donotdisturb.html


Media Info:

General
Complete name                            : Do.Not.Disturb.2012.DVDRip.AC3.XviD.HORiZON-ArtSubs
Format                                   : AVI
Format/Info                              : Audio Video Interleave
File size                                : 1.37 GiB
Duration                                 : 1h 28mn
Overall bit rate                         : 2 208 Kbps
Writing application                      : FairUse Wizard - http://fairusewizard.com
Writing library                          : The best and REALLY easy backup tool

Video
ID                                       : 0
Format                                   : MPEG-4 Visual
Format profile                           : Advanced Simple@L5
Format settings, BVOP                    : 1
Format settings, QPel                    : No
Format settings, GMC                     : No warppoints
Format settings, Matrix                  : Default (MPEG)
Muxing mode                              : Packed bitstream
Codec ID                                 : XVID
Codec ID/Hint                            : XviD
Duration                                 : 1h 28mn
Bit rate                                 : 1 752 Kbps
Width                                    : 640 pixels
Height                                   : 272 pixels
Display aspect ratio                     : 2.35:1
Frame rate                               : 25.000 fps
Color space                              : YUV
Chroma subsampling                       : 4:2:0
Bit depth                                : 8 bits
Scan type                                : Progressive
Compression mode                         : Lossy
Bits/(Pixel*Frame)                       : 0.403
Stream size                              : 1.08 GiB (79%)
Writing library                          : XviD 1.2.0.dev47 (UTC 2006-11-01)

Audio
ID                                       : 1
Format                                   : AC-3
Format/Info                              : Audio Coding 3
Mode extension                           : CM (complete main)
Format settings, Endianness              : Big
Codec ID                                 : 2000
Duration                                 : 1h 28mn
Bit rate mode                            : Constant
Bit rate                                 : 448 Kbps
Channel(s)                               : 6 channels
Channel positions                        : Front: L C R, Side: L R, LFE
Sampling rate                            : 48.0 KHz
Bit depth                                : 16 bits
Compression mode                         : Lossy
Stream size                              : 283 MiB (20%)
Alignment                                : Split accross interleaves
Interleave, duration                     : 40 ms (1.00 video frame)
Interleave, preload duration             : 500 ms
Do.Not.Disturb.2012.DVDRip.AC3.XviD.HORiZON-ArtSubs.avi 1.466 GB
Gathering some info...

Register and log in Isohunt and see no captcha anymore!

4000 symbols left
Hash BB51B57C53B4D2A7E56309B4FD8FC079C8404C50

Related torrents for "Do.Not.Disturb.2012.DVDRip.AC3.XviD.HORiZON-ArtSubs"

Torrent search:

dvdrip 2012