imdb
rating

7.6
The Town

The Town (2010)

Crime, Drama, Thriller

Full description
quality   cam screener hd dvdrip bd

The Town 2010 Extended Cut 720p Bluray anoXmous

Size 734.166 MB   8 seeders     Added 2013-02-05 22:00:41

Stream torrent
Starting‥ You need BitLord! Get it from 1BitLord.com
To download or stream you need BitLord. Visit them at BitLord.com

[color=red][b]The.Town.2010.EXTENDED.CUT.720p.Bluray.x264.anoXmous[/b][/color]

---------------------------------------------------------------------------------------------------------------------------
[b]
Language : English
Subtitles : Swedish
[/b]
---------------------------------------------------------------------------------------------------------------------------

[color=blue][b]Screens made by Media Player Classic:[/b][/color] 
http://www.imagebam.com/image/e4b355166788595

---------------------------------------------------------------------------------------------------------------------------

[color=blue][b]Info[/b][/color]

Format : MPEG-4
Format profile : Base Media
Codec ID : isom
File size : 700 MiB
Duration : 2h 30mn
Overall bit rate mode : Variable
Overall bit rate : 650 Kbps


[b]Video[/b]
ID : 1
Format : AVC
Format/Info : Advanced Video Codec
Format profile : High@L4.1
Format settings, CABAC : Yes
Format settings, ReFrames : 4 frames
Codec ID : avc1
Codec ID/Info : Advanced Video Coding
Duration : 2h 30mn
Bit rate : 582 Kbps
Maximum bit rate : 4 865 Kbps
Width : 1 280 pixels
Height : 536 pixels
Display aspect ratio : 2.40:1
Frame rate mode : Constant
Frame rate : 23.976 fps
Color space : YUV
Chroma subsampling : 4:2:0
Bit depth : 8 bits
Scan type : Progressive
Bits/(Pixel*Frame) : 0.035
Stream size : 627 MiB (90%)
Writing library : x264 core 120 r2120 0c7dab9


[b]Audio[/b]
ID : 2
Format : AAC
Format/Info : Advanced Audio Codec
Format profile : LC
Codec ID : 40
Duration : 2h 30mn
Bit rate mode : Variable
Bit rate : 66.2 Kbps
Maximum bit rate : 99.4 Kbps
Channel(s) : 2 channels
Channel positions : Front: L R
Sampling rate : 48.0 KHz 
Compression mode : Lossy
Stream size : 70.3 MiB (10%)

---------------------------------------------------------------------------------------------------------------------------

 http://www.imdb.com/title/tt0840361/

---------------------------------------------------------------------------------------------------------------------------

 +++++++++ This work very fine with PSP and XBOX :) ++++++++++	

---------------------------------------------------------------------------------------------------------------------------
iNFo.txt 2.94 KB
The.Town.2010.EXTENDED.CUT.720p.Bluray.x264.anoXmous.mp4 734.059 MB
The.Town.2010.EXTENDED.CUT.720p.Bluray.x264.anoXmous_swe.srt 103.578 KB
Gathering some info...

Register and log in Isohunt and see no captcha anymore!

4000 symbols left
Hash F019D132796F116ECB5B02BF51602116B5F8E4DF

Related torrents for "The Town 2010 Extended Cut 720p Bluray anoXmous"

Torrent search:

hd 2010 bd