imdb
rating

7.4
The NeverEnding Story

The NeverEnding Story (1984)

Fantasy, Family

Full description
quality   x264 hd bd fullhd dvdrip

The Neverending Story 1984 720p Bluray anoXmous

Size 733.366 MB   10 seeders     Added 2013-02-05 22:20:51

Stream torrent
Starting‥ You need BitLord! Get it from BitLord.com
10
To download or stream you need BitLord. Visit them at BitLord.com

[color=red][b]The.Neverending.Story.1984.720p.Bluray.x264.anoXmous[/b][/color]

---------------------------------------------------------------------------------------------------------------------------
[b]
Language : English
Subtitles : Swedish
[/b]
---------------------------------------------------------------------------------------------------------------------------

[color=blue][b]Screens made by Media Player Classic:[/b][/color] 
http://www.imagebam.com/image/c608d6166462971

---------------------------------------------------------------------------------------------------------------------------

[color=blue]
[b]Info[/b][/color]

Format : MPEG-4
Format profile : Base Media
Codec ID : isom
File size : 699 MiB
Duration : 1h 33mn
Overall bit rate mode : Variable
Overall bit rate : 1 041 Kbps


[b]Video[/b]
ID : 1
Format : AVC
Format/Info : Advanced Video Codec
Format profile : High@L4.1
Format settings, CABAC : Yes
Format settings, ReFrames : 4 frames
Codec ID : avc1
Codec ID/Info : Advanced Video Coding
Duration : 1h 33mn
Bit rate : 966 Kbps
Maximum bit rate : 4 227 Kbps
Width : 1 280 pixels
Height : 544 pixels
Display aspect ratio : 2.35:1
Original display aspect ratio : 2.35:1
Frame rate mode : Constant
Frame rate : 23.976 fps
Color space : YUV
Chroma subsampling : 4:2:0
Bit depth : 8 bits
Scan type : Progressive
Bits/(Pixel*Frame) : 0.058
Stream size : 649 MiB (93%)
Writing library : x264 core 120 r2120 0c7dab9


[b]Audio[/b]
ID : 2
Format : AAC
Format/Info : Advanced Audio Codec
Format profile : LC
Codec ID : 40
Duration : 1h 33mn
Bit rate mode : Variable
Bit rate : 72.0 Kbps
Maximum bit rate : 90.5 Kbps
Channel(s) : 2 channels
Channel positions : Front: L R
Sampling rate : 48.0 KHz 
Compression mode : Lossy
Stream size : 48.4 MiB (7%)
Language : English

---------------------------------------------------------------------------------------------------------------------------

http://www.imdb.com/title/tt0088323/

---------------------------------------------------------------------------------------------------------------------------

 +++++++++ This work very fine with PSP and XBOX :) ++++++++++

---------------------------------------------------------------------------------------------------------------------------
		
iNFo.txt 2.372 KB
The.Neverending.Story.1984.720p.Bluray.x264.anoXmous.mp4 733.324 MB
The.Neverending.Story.1984.720p.Bluray.x264.anoXmous.mp4_swe.srt 38.807 KB
Gathering some info...

Register and log in Isohunt and see no captcha anymore!

4000 symbols left
Hash DB7AAE0F134B7EFD9281FD8DA73804ECEDEB4BFC

Related torrents for "The Neverending Story 1984 720p Bluray anoXmous"

Torrent search:

1984 hd bd