Superbowl XLVII Beyoncé Halftime Show 1080i HDTV

Size 3.782 GB   0 seeders     Added 2013-02-05 22:35:33

Stream torrent
Starting‥ You need BitLord! Get it from 1BitLord.com
To download or stream you need BitLord. Visit them at BitLord.com
Superbowl XLVII Halftime Show 1080i HDTV 36Mbps MPEG-2 MPA 2.0-CtrlHD.ts

Format                                   : MPEG-TS
File size                                : 3.52 GiB
Duration                                 : 13mn 41s
Overall bit rate mode                    : Variable
Overall bit rate                         : 36.8 Mbps
Maximum Overall bit rate                 : 35.5 Mbps

Video
ID                                       : 4113 (0x1011)
Menu ID                                  : 1 (0x1)
Format                                   : MPEG Video
Format version                           : Version 2
Format profile                           : 4:2:2@High
Format settings, BVOP                    : Yes
Format settings, Matrix                  : Custom
Format settings, GOP                     : M=3, N=15
Codec ID                                 : 2
Duration                                 : 13mn 36s
Bit rate                                 : 34.3 Mbps
Maximum bit rate                         : 35.3 Mbps
Width                                    : 1 920 pixels
Height                                   : 1 080 pixels
Display aspect ratio                     : 16:9
Frame rate                               : 29.970 fps
Standard                                 : Component
Color space                              : YUV
Chroma subsampling                       : 4:2:2
Bit depth                                : 8 bits
Scan type                                : Interlaced
Scan order                               : Top Field First
Compression mode                         : Lossy
Bits/(Pixel*Frame)                       : 0.551
Stream size                              : 3.26 GiB (92%)
Color primaries                          : BT.709
Transfer characteristics                 : BT.709
Matrix coefficients                      : BT.709

Audio #1
ID                                       : 4352 (0x1100)
Menu ID                                  : 1 (0x1)
Format                                   : MPEG Audio
Format version                           : Version 1
Format profile                           : Layer 2
Mode                                     : Joint stereo
Codec ID                                 : 4
Duration                                 : 13mn 36s
Bit rate mode                            : Constant
Bit rate                                 : 256 Kbps
Channel(s)                               : 2 channels
Sampling rate                            : 48.0 KHz
Compression mode                         : Lossy
Delay relative to video                  : 11ms
Stream size                              : 24.9 MiB (1%)
Language                                 : English

Audio #2
ID                                       : 4353 (0x1101)
Menu ID                                  : 1 (0x1)
Format                                   : MPEG Audio
Format version                           : Version 1
Format profile                           : Layer 2
Mode                                     : Joint stereo
Mode extension                           : Intensity Stereo + MS Stereo
Codec ID                                 : 4
Duration                                 : 13mn 36s
Bit rate mode                            : Constant
Bit rate                                 : 256 Kbps
Channel(s)                               : 2 channels
Sampling rate                            : 48.0 KHz
Compression mode                         : Lossy
Delay relative to video                  : 22ms
Stream size                              : 24.9 MiB (1%)
Language                                 : English

Audio #3
ID                                       : 4354 (0x1102)
Menu ID                                  : 1 (0x1)
Format                                   : MPEG Audio
Format version                           : Version 1
Format profile                           : Layer 2
Mode                                     : Dual mono
Codec ID                                 : 4
Duration                                 : 13mn 36s
Bit rate mode                            : Constant
Bit rate                                 : 192 Kbps
Channel(s)                               : 2 channels
Sampling rate                            : 48.0 KHz
Compression mode                         : Lossy
Delay relative to video                  : 5s 288ms
Stream size                              : 18.7 MiB (1%)
Language                                 : English


Thumbnails 
image		
Superbowl XLVII Halftime Show 1080i HDTV 36Mbps MPEG-2 MPA 2.0-CtrlHD.ts 3.781 GB
Superbowl XLVII Halftime Show 1080i HDTV 36Mbps MPEG-2 MPA 2.0-CtrlHD.txt 6.063 KB
thumbs.jpg 678.18 KB
Gathering some info...

Register and log in Isohunt and see no captcha anymore!

4000 symbols left
Hash 7503B2A742578AE77240C6C149D973F434287222