imdb
rating

8.0
Mulholland Drive

Mulholland Drive (2001)

Drama, Mystery, Thriller

Full description
quality   x264 hd bd dvdrip fullhd screener

Mulholland Drive 2001 720p Bluray anoXmous

Size 733.996 MB   153 seeders     Added 2013-02-05 23:41:19

Stream torrent
Starting‥ You need BitLord! Get it from 1BitLord.com
To download or stream you need BitLord. Visit them at BitLord.com
[color=red][b]Mulholland.Drive.2001.720p.x264.aac.mp4.anoXmous[/b][/color]

---------------------------------------------------------------------------------------------------------------------------
[b]
Language : English
Subtitles : Swedish
[/b]
---------------------------------------------------------------------------------------------------------------------------

[color=blue][b]Screens made by Media Player Classic:[/b][/color] 
http://www.imagebam.com/image/44d720165160374

---------------------------------------------------------------------------------------------------------------------------

[color=blue][b]Info[/b][/color]

Format : MPEG-4
Format profile : Base Media
Codec ID : isom
File size : 700 MiB
Duration : 2h 26mn
Overall bit rate mode : Variable
Overall bit rate : 668 Kbps
Encoded date : UTC 2011-12-06 01:31:53
Tagged date : UTC 2011-12-06 01:31:53

[b]Video[/b]
ID : 1
Format : AVC
Format/Info : Advanced Video Codec
Format profile : High@L4.1
Format settings, CABAC : Yes
Format settings, ReFrames : 4 frames
Codec ID : avc1
Codec ID/Info : Advanced Video Coding
Duration : 2h 26mn
Bit rate : 597 Kbps
Maximum bit rate : 4 043 Kbps
Width : 1 278 pixels
Height : 688 pixels
Display aspect ratio : 1.850
Frame rate mode : Constant
Frame rate : 23.976 fps
Color space : YUV
Chroma subsampling : 4:2:0
Bit depth : 8 bits
Scan type : Progressive
Bits/(Pixel*Frame) : 0.028
Stream size : 626 MiB (89%)
Writing library : x264 core 119 r2106 07efeb4


[b]Audio[/b]
ID : 2
Format : AAC
Format/Info : Advanced Audio Codec
Format profile : LC
Codec ID : 40
Duration : 2h 26mn
Bit rate mode : Variable
Bit rate : 67.6 Kbps
Maximum bit rate : 92.9 Kbps
Channel(s) : 2 channels
Channel positions : Front: L R
Sampling rate : 48.0 KHz 
Compression mode : Lossy
Stream size : 70.9 MiB (10%)
Language : English

---------------------------------------------------------------------------------------------------------------------------

http://www.imdb.com/title/tt0166924/

---------------------------------------------------------------------------------------------------------------------------

+++++++++ This work very fine with PSP and XBOX :) +++++++++++	

---------------------------------------------------------------------------------------------------------------------------
Info.txt 2.435 KB
Mulholland.Drive.2001.720p.x264.aac.mp4.anoXmous.mp4 733.935 MB
Mulholland.Drive.2001.720p.x264.aac.mp4.anoXmous_swe.srt 57.857 KB
Gathering some info...

Register and log in Isohunt and see no captcha anymore!

4000 symbols left
Hash F725A88FBAC1BA0492362FFBB395308130E4901F

Related torrents for "Mulholland Drive 2001 720p Bluray anoXmous"

Torrent search:

2001 hd bd