The Terrorists (Thunska Pansittivorakul, 2011)

Size 1.637 GB   1 seeders     Added 2013-02-05 23:55:50

Stream torrent
Starting‚Ä• You need BitLord! Get it from BitLord.com
To download or stream you need BitLord. Visit them at BitLord.com
The movie is divided into seventeen unrelated segments and is a mixture of both documentary and experimental film genres. By inhabiting the lives of laymen from different parts of Thailand, the movie brings us through blurry trails, distorted memories and recently constructed histories. We unearth missing pieces of the puzzle in our attempt to understand why Thai democracy is still considered backwards and frozen. Are we deceiving ourselves that we are in a democratic society when we are not? The movie begins on a fishing boat, as we observe two boys conversing in an indecipherable tongue. It moves on to contemplate the light penetrating the sea and observe small lives swimming under the surface overlapped with a human body victimized by an unseen person. Beneath the darkness of a rubber farm, only faint light from the lamps illuminates the way. The truth from our present is superimposed with the blood-thirst from the past. The past is erased from the page of Thai history, and what is left is only the accusation that they are the terrorists.


_____________________________________________



General
Complete name                    : D:The Terrorists (Thunska Pansittivorakul, 2011).mkv
Format                           : Matroska
File size                        : 1.52 GiB
Duration                         : 1h 44mn
Overall bit rate                 : 2 096 Kbps
Writing application              : HandBrake 0.9.8
Writing library                  : libmkv 0.6.5

Video
ID                               : 1
Format                           : AVC
Format/Info                      : Advanced Video Codec
Format profile                   : High@L3.1
Format settings, CABAC           : Yes
Format settings, ReFrames        : 11 frames
Codec ID                         : V_MPEG4/ISO/AVC
Duration                         : 1h 44mn
Bit rate                         : 1 900 Kbps
Width                            : 720 pixels
Height                           : 576 pixels
Display aspect ratio             : 16:9
Frame rate                       : 25.000 fps
Standard                         : PAL
Color space                      : YUV
Chroma subsampling               : 4:2:0
Bit depth                        : 8 bits
Scan type                        : Progressive
Bits/(Pixel*Frame)               : 0.183
Stream size                      : 1.33 GiB (87%)
Writing library                  : x264 core 120

Audio
ID                               : 2
Format                           : AC-3
Format/Info                      : Audio Coding 3
Mode extension                   : ME (music and effects)
Codec ID                         : A_AC3
Duration                         : 1h 44mn
Bit rate mode                    : Constant
Bit rate                         : 224 Kbps
Channel(s)                       : 3 channels
Channel positions                : Front: L R,   Side: C
Sampling rate                    : 48.0 KHz
Bit depth                        : 16 bits
Compression mode                 : Lossy
Stream size                      : 167 MiB (11%)
Language                         : Thai

Text
ID                               : 3
Format                           : VobSub
Codec ID                         : S_VOBSUB
Codec ID/Info                    : The same subtitle format used on DVDs
Language                         : English		
The Terrorists (Thunska Pansittivorakul, 2011).mkv 1.637 GB
Gathering some info...

Register and log in Isohunt and see no captcha anymore!

4000 symbols left
Hash 867F42095E7CC9C689CAEB92BC1F78B744109318