imdb
rating

7.0
Girl with a Pearl Earring

Girl with a Pearl Earring (2003)

Drama, Romance

Full description
quality   dvdrip x264 hd bd fullhd hdtv

Girl with a Pearl Earring 2003 Bluray anoXmous

Size 731.851 MB   0 seeders     Added 2013-02-06 00:01:00

Stream torrent
Starting‥ You need BitLord! Get it from 1BitLord.com
To download or stream you need BitLord. Visit them at BitLord.com

[color=blue][b]Girl.with.a.Pearl.Earring.2003.BRRip.x264.aac.mp4.anoXmous[/b][/color]

--------------------------------------------------------------------------------------------------------------------------
[b]
Language : English
Subtitles : Swedish
[/b]
--------------------------------------------------------------------------------------------------------------------------

[color=blue][b]Screenshots:[/b][/color] 
image

--------------------------------------------------------------------------------------------------------------------------

[color=blue][b]Info[/b][/color]

Format : MPEG-4
Format profile : Base Media
Codec ID : isom
File size : 698 MiB
Duration : 1h 39mn
Overall bit rate mode : Variable
Overall bit rate : 976 Kbps


[b]Video[/b]
ID : 1
Format : AVC
Format/Info : Advanced Video Codec
Format profile : High@L4.1
Format settings, CABAC : Yes
Format settings, ReFrames : 4 frames
Codec ID : avc1
Codec ID/Info : Advanced Video Coding
Duration : 1h 39mn
Bit rate : 909 Kbps
Maximum bit rate : 7 420 Kbps
Width : 1 274 pixels
Height : 540 pixels
Display aspect ratio : 2.35:1
Frame rate mode : Constant
Frame rate : 23.976 fps
Color space : YUV
Chroma subsampling : 4:2:0
Bit depth : 8 bits
Scan type : Progressive
Bits/(Pixel*Frame) : 0.055
Stream size : 650 MiB (93%)
Writing library : x264 core 120 r2120 0c7dab9

[b]Audio[/b]
ID : 2
Format : AAC
Format/Info : Advanced Audio Codec
Format profile : LC
Codec ID : 40
Duration : 1h 39mn
Bit rate mode : Variable
Bit rate : 64.3 Kbps
Maximum bit rate : 91.9 Kbps
Channel(s) : 2 channels
Channel positions : Front: L R
Sampling rate : 48.0 KHz 
Compression mode : Lossy
Stream size : 46.0 MiB (7%)
Language : English

--------------------------------------------------------------------------------------------------------------------------

http://www.imdb.com/title/tt0335119/

--------------------------------------------------------------------------------------------------------------------------

 +++++++ This work very fine with PSP and XBOX :) +++++++++	

--------------------------------------------------------------------------------------------------------------------------
Girl.with.a.Pearl.Earring.2003.BRRip.x264.aac.mp4.anoXmous.mp4 731.817 MB
Girl.with.a.Pearl.Earring.2003.BRRip.x264.aac.mp4.anoXmous_swe.srt 31.567 KB
Info.txt 2.329 KB
Gathering some info...

Register and log in Isohunt and see no captcha anymore!

4000 symbols left
Hash 28D2C496F07424C9A63B1AA2AF50B36ED7876B8E

Related torrents for "Girl with a Pearl Earring 2003 Bluray anoXmous"

Torrent search:

2003 bd