imdb
rating

8.4
A Clockwork Orange

A Clockwork Orange (1971)

Drama

Full description
quality   dvdrip x264 hd bd fullhd h264

A Clockwork Orange 1971 720p Bluray anoXmous

Size 734.362 MB   5 seeders     Added 2013-02-06 01:00:52

Stream torrent
Starting‥ You need BitLord! Get it from BitLord.com
To download or stream you need BitLord. Visit them at BitLord.com
[color=red]
[b]A.Clockwork.Orange.1971.720p.x264.aac.mp4.anoXmous[/b]
[/color]
---------------------------------------------------------------------------------------------------------------------------
[b]
Language : English
Subtitles : English, Swedish
[/b]
---------------------------------------------------------------------------------------------------------------------------

[color=blue][b]Screenshots:[/b][/color] 
http://www.imagebam.com/image/0808ee163287528

---------------------------------------------------------------------------------------------------------------------------

[color=blue][b]Info[/b][/color]

Format : MPEG-4
Format profile : Base Media
Codec ID : isom
File size : 700 MiB
Duration : 2h 16mn
Overall bit rate mode : Variable
Overall bit rate : 716 Kbps

[b]Video[/b]
ID : 1
Format : AVC
Format/Info : Advanced Video Codec
Format profile : High@L4.1
Format settings, CABAC : Yes
Format settings, ReFrames : 4 frames
Codec ID : avc1
Codec ID/Info : Advanced Video Coding
Duration : 2h 16mn
Bit rate : 648 Kbps
Maximum bit rate : 5 473 Kbps
Width : 1 200 pixels
Height : 720 pixels
Display aspect ratio : 1.667
Frame rate mode : Constant
Frame rate : 23.976 fps
Color space : YUV
Chroma subsampling : 4:2:0
Bit depth : 8 bits
Scan type : Progressive
Bits/(Pixel*Frame) : 0.031
Stream size : 633 MiB (90%)
Writing library : x264 core 119 r2106 07efeb4


[b]Audio[/b]
ID : 2
Format : AAC
Format/Info : Advanced Audio Codec
Format profile : LC
Codec ID : 40
Duration : 2h 16mn
Bit rate mode : Variable
Bit rate : 66.2 Kbps
Maximum bit rate : 96.1 Kbps
Channel(s) : 2 channels
Channel positions : Front: L R
Sampling rate : 48.0 KHz
Compression mode : Lossy
Stream size : 64.0 MiB (9%)
 ---------------------------------------------------------------------------------------------------------------------------

http://www.imdb.com/title/tt0066921/

---------------------------------------------------------------------------------------------------------------------------

+++++++ This work very fine with PSP and XBOX :) +++++++++	

---------------------------------------------------------------------------------------------------------------------------
A.Clockwork.Orange.1971.720p.x264.aac.mp4.anoXmous.mp4 734.115 MB
A.Clockwork.Orange.1971.720p.x264.aac.mp4.anoXmous_eng.srt 124.922 KB
A.Clockwork.Orange.1971.720p.x264.aac.mp4.anoXmous_swe.srt 120.069 KB
Gathering some info...

Register and log in Isohunt and see no captcha anymore!

4000 symbols left
Hash BDAD7471EE695AADB2D30A20CEFA6630002833E9

Related torrents for "A Clockwork Orange 1971 720p Bluray anoXmous"

Torrent search:

1971 hd bd