imdb
rating

7.7
Primal Fear

Primal Fear (1996)

Crime, Drama, Mystery, Thriller

Full description
quality   bd dvdrip h264 x264 hd fullhd

Primal Fear 1996 720p Bluray anoXmous

Size 733.141 MB   16 seeders     Added 2013-02-06 01:01:03

Stream torrent
Starting‥ You need BitLord! Get it from BitLord.com
6.7
To download or stream you need BitLord. Visit them at BitLord.com

[color=red][b]Primal.Fear.1996.720p.x264.aac.mp4.anoXmous[/b][/color]

---------------------------------------------------------------------------------------------------------------------------
[b]
Language : English
Subtitles : Swedish
[/b]
---------------------------------------------------------------------------------------------------------------------------

[color=blue][b]Screenshots:[/b][/color]
http://www.imagebam.com/image/29bce2164006929

---------------------------------------------------------------------------------------------------------------------------

[color=blue][b]Info[/b][/color]

Format : MPEG-4
Format profile : Base Media
Codec ID : isom
File size : 699 MiB
Duration : 2h 10mn
Overall bit rate mode : Variable
Overall bit rate : 749 Kbps

[b]Video[/b]
ID : 1
Format : AVC
Format/Info : Advanced Video Codec
Format profile : High@L4.1
Format settings, CABAC : Yes
Format settings, ReFrames : 4 frames
Codec ID : avc1
Codec ID/Info : Advanced Video Coding
Duration : 2h 10mn
Bit rate : 678 Kbps
Maximum bit rate : 3 809 Kbps
Width : 1 280 pixels
Height : 720 pixels
Display aspect ratio : 16:9
Frame rate mode : Constant
Frame rate : 23.976 fps
Color space : YUV
Chroma subsampling : 4:2:0
Bit depth : 8 bits
Scan type : Progressive
Bits/(Pixel*Frame) : 0.031
Stream size : 632 MiB (90%)
Writing library : x264 core 119 r2106 07efeb4

[b]Audio[/b]
ID : 2
Format : AAC
Format/Info : Advanced Audio Codec
Format profile : LC
Codec ID : 40
Duration : 2h 10mn
Bit rate mode : Variable
Bit rate : 68.5 Kbps
Maximum bit rate : 96.8 Kbps
Channel(s) : 2 channels
Channel positions : Front: L R
Sampling rate : 48.0 KHz 
Compression mode : Lossy
Stream size : 63.9 MiB (9%)
Language : English

---------------------------------------------------------------------------------------------------------------------------

http://www.imdb.com/title/tt0117381/

---------------------------------------------------------------------------------------------------------------------------

 +++++++ This work very fine with PSP and XBOX :) +++++++++

---------------------------------------------------------------------------------------------------------------------------
Info.txt 2.302 KB
Primal.Fear.1996.720p.x264.aac.mp4.anoXmous.mp4 733.031 MB
Primal.Fear.1996.720p.x264.aac.mp4.anoXmous_swe.srt 107.11 KB
Gathering some info...

Register and log in Isohunt and see no captcha anymore!

4000 symbols left
Hash 6EE213E5B9D4AF7EA1D4D29D2C5BD38D620A06DC

Related torrents for "Primal Fear 1996 720p Bluray anoXmous"

Torrent search:

1996 hd bd