Eight Legged Freaks (2002) - Arac Attack Mostri a otto zampe [DivX - Italian English] MIRCrew [TNT Village]

Size 1.464 GB   11 seeders     Added 2013-02-06 01:40:58

Stream torrent
Starting‥ You need BitLord! Get it from 1BitLord.com
To download or stream you need BitLord. Visit them at BitLord.com
Eight Legged Freaks (2002) - Arac Attack Mostri a otto zampe [DivX - Italian English] MIRCrew [TNT Village]


Arac Attack Mostri a otto zampe - Eight Legged Freaks (2002) [DivX - Italian English] MIRCrew [TNT Village]





[color=#660000][b][IMG]image[/IMG]


*********************************************

[URL=http://www.imdb.it/title/tt0271367/][IMG]image[/IMG][/URL]

Arac Attack - Mostri a otto zampe - Eight Legged Freaks (2002)

[IMG]image[/IMG]

Titolo originale 	Eight Legged Freaks
Paese di produzione 	USA
Anno 	2002
Durata 	99 min

Arac Attack - Mostri a otto zampe è un film commedia horror fantascientifica del 2002, diretto da Ellory Elkayem.
È un omaggio ai classici del cinema di fantascienza degli anni cinquanta.

Genere 	commedia horror
Regia 	Ellory Elkayem
Sceneggiatura 	Ellory Elkayem, Jesse Alexander
Produttore 	Bruce Berman, Dean Devlin
Produttore esecutivo 	Roland Emmerich, William Fay, Peter Winther
Casa di produzione 	Warner Bros.
Fotografia 	John S. Bartley
Montaggio 	David Siegel
Musiche 	John Ottman
Scenografia 	Charles Breen
Costumi 	Alix Friedberg
Trucco 	Kim Collea



[IMG]image[/IMG]

[IMG]image[/IMG]

 Kari Wuhrer: Sceriffo Sam Parker
 Scott Terra: Mike Parker
 David Arquette: Chris McCormack
 Scarlett Johansson: Ashley Parker
 Leon Rippy: Wade
 Matt Czuchry: Bret
 Jay Arlen Jones: Leon
 Riley Smith: Randy

Doppiatori italiani

 Giò-Giò Rapattoni: Sceriffo Sam Parker
 Flavio Aquilone: Mike Parker
 Oreste Baldini: Chris McCormack
 Connie Bismuto: Ashley Parker


[IMG]image[/IMG]


Nella tranquilla cittadina mineraria di Prosperity, in Arizona, un incidente provoca la caduta di un barile di rifiuti tossici dentro uno stagno. Joshua, un collezionista di ragni esotici 

si reca come di consueto allo stagno, dove raccoglie i grilli per nutrire i suoi ragni. Gli aracnidi cibandosi dei grilli ne assumono le tossine, e nulla nell'immediato ne fa presagire la 

futura metamorfosi all'ignaro Joshua, fiero della sua collezione di ragni, e che mostra a Mike, un ragazzino del luogo. Dopo che Mike torna Joshua sarà la prima vittima degli aracnidi che 

diverranno sempre più grandi e mortali..............


Storyline

The residents of a rural mining town discover that an unfortunate chemical spill has caused hundreds of little spiders to mutate overnight to the size of SUVs. It's then up to mining 

engineer Chris McCormack and Sheriff Sam Parker to mobilize an eclectic group of townspeople, including the Sheriff's young son, Mike, her daughter, Ashley, and paranoid radio announcer 

Harlan, into battle against the bloodthirsty eight-legged beasts............


[IMG]image[/IMG]

[IMG]image[/IMG]

[IMG]image[/IMG]

[IMG]image[/IMG]

[IMG]image[/IMG]


[IMG]image[/IMG]


General
Complete name : C:\Usersobbyrs\Desktop\Arac Attack - Mostri a otto zampe (2002)\Arac Attack - CD2.avi
Format : AVI
Format/Info : Audio Video Interleave
File size : 698 MiB
Duration : 44mn 13s
Overall bit rate : 2 207 Kbps
Writing application : VirtualDubMod 1.5.10.1 (build 2439/release)
Writing library : VirtualDubMod build 2439/release

Video
ID : 0
Format : MPEG-4 Visual
Format settings, BVOP : No
Format settings, QPel : No
Format settings, GMC : No warppoints
Format settings, Matrix : Default (H.263)
Codec ID : DX50
Codec ID/Hint : DivX 5
Duration : 44mn 13s
Bit rate : 1 688 Kbps
Width : 608 pixels
Height : 256 pixels
Display aspect ratio : 2.35:1
Frame rate : 25.000 fps
Color space : YUV
Chroma subsampling : 4:2:0
Bit depth : 8 bits
Scan type : Progressive
Bits/(Pixel*Frame) : 0.434
Stream size : 534 MiB (77%)
Writing library : DivX 6.0.0 (UTC 2005-06-15)

Audio #1
ID : 1
Format : AC-3
Format/Info : Audio Coding 3
Mode extension : CM (complete main)
Codec ID : 2000
Duration : 44mn 12s
Bit rate mode : Constant
Bit rate : 384 Kbps
Channel(s) : 6 channels
Channel positions : Front: L C R, Side: L R, LFE
Sampling rate : 48.0 KHz
Bit depth : 16 bits
Stream size : 121 MiB (17%)
Alignment : Aligned on interleaves
Interleave, duration : 160 ms (4.00 video frames)
Interleave, preload duration : 160 ms

Audio #2
ID : 2
Format : MPEG Audio
Format version : Version 1
Format profile : Layer 3
Codec ID : 55
Codec ID/Hint : MP3
Duration : 44mn 13s
Bit rate mode : Constant
Bit rate : 128 Kbps
Channel(s) : 2 channels
Sampling rate : 48.0 KHz
Stream size : 40.5 MiB (6%)
Alignment : Aligned on interleaves
Interleave, duration : 520 ms (13.00 video frames)
Interleave, preload duration : 528 ms




[IMG]image[/IMG]


[/b][/color]



Arac Attack - CD1.avi 731.759 MB
Arac Attack - CD2.avi 731.859 MB
Gathering some info...

Register and log in Isohunt and see no captcha anymore!

4000 symbols left
Hash D4228EA9C7615C7EE3AF5AC8DB78AF7EC7B0D42A