imdb
rating

7.1
Melancholia

Melancholia (2011)

Drama, Science Fiction

Full description

Melancholia 2011 720p Bluray anoXmous

Size 732.028 MB   0 seeders     Added 2013-02-06 02:01:07

Stream torrent
Starting‥ You need BitLord! Get it from 1BitLord.com
To download or stream you need BitLord. Visit them at BitLord.com
[color=red][b]Melancholia.2011.720p.BRRip.x264.aac.mp4.anoXmous[/b][/color]

---------------------------------------------------------------------------------------------------------------------------
[b]
Language : English
Subtitles : Swedish
[/b]
---------------------------------------------------------------------------------------------------------------------------

[color=blue][b]Screenshots:[/b][/color] 
http://www.imagebam.com/image/958b29162923231

---------------------------------------------------------------------------------------------------------------------------

[color=blue][b]Info[/b][/color]

Format : MPEG-4
Format profile : Base Media
Codec ID : isom
File size : 698 MiB
Duration : 2h 9mn
Overall bit rate mode : Variable
Overall bit rate : 751 Kbps


[b]Video[/b]
ID : 1
Format : AVC
Format/Info : Advanced Video Codec
Format profile : High@L4.1
Format settings, CABAC : Yes
Format settings, ReFrames : 4 frames
Codec ID : avc1
Codec ID/Info : Advanced Video Coding
Duration : 2h 9mn
Bit rate : 687 Kbps
Maximum bit rate : 4 877 Kbps
Width : 1 280 pixels
Height : 544 pixels
Display aspect ratio : 2.35:1
Frame rate mode : Constant
Frame rate : 25.000 fps
Color space : YUV
Chroma subsampling : 4:2:0
Bit depth : 8 bits
Scan type : Progressive
Bits/(Pixel*Frame) : 0.039
Stream size : 639 MiB (92%)
Writing library : x264 core 119 r2106 07efeb4


[b]Audio[/b]
ID : 2
Format : AAC
Format/Info : Advanced Audio Codec
Format profile : LC
Codec ID : 40
Duration : 2h 9mn
Bit rate mode : Variable
Bit rate : 61.0 Kbps
Maximum bit rate : 95.3 Kbps
Channel(s) : 2 channels
Channel positions : Front: L R
Sampling rate : 48.0 KHz 
Compression mode : Lossy
Stream size : 56.7 MiB (8%)
Language : English

---------------------------------------------------------------------------------------------------------------------------

http://www.imdb.com/title/tt1527186/

---------------------------------------------------------------------------------------------------------------------------

+++++++ This work very fine with PSP and XBOX :) +++++++++

---------------------------------------------------------------------------------------------------------------------------
Info.txt 2.332 KB
Melancholia.2011.720p.BRRip.x264.aac.mp4.anoXmous.mp4 731.972 MB
Melancholia.2011.720p.BRRip.x264.aac.mp4.anoXmous_swe.srt 53.588 KB
Gathering some info...

Register and log in Isohunt and see no captcha anymore!

4000 symbols left
Hash 3AD439C8D474BC7505A3341575653A01040BFFB6

Related torrents for "Melancholia 2011 720p Bluray anoXmous"

Torrent search:

hd bd 2011