Meet Dave (2008) - Piacere Dave [XviD - Italian English Ac3 5.1 - Sub Ita] MIRCrew [TNT Village]

Size 1.582 GB   11 seeders     Added 2013-02-06 02:20:58

Stream torrent
Starting‥ You need BitLord! Get it from BitLord.com
To download or stream you need BitLord. Visit them at BitLord.com
Meet Dave (2008) - Piacere Dave [XviD - Italian English Ac3 5.1 - Sub Ita] MIRCrew [TNT Village]


Piacere Dave - Meet Dave (2008) [XviD - Italian English Ac3 5.1 - Sub Ita] MIRCrew [TNT Village]




[color=#3366FF][IMG]image[/IMG]

[IMG]image[/IMG]


[URL=http://www.imdb.it/title/tt0765476/][IMG]image[/IMG][/URL]

[IMG]image[/IMG]

[IMG]image[/IMG]

Titolo originale 	Meet Dave
Lingua originale 	inglese
Paese di produzione 	USA
Anno 	2008
Durata 	90 min
Genere 	commedia fantascientifica
Regia 	Brian Robbins
Sceneggiatura 	Rob Greenberg, Bill Corbett
Produttore 	Jon Berg, David T. Friendly, Todd Komarnicki
Distribuzione (Italia) 	20th Century Fox
Fotografia 	J. Clark Mathis
Montaggio 	Ned Bastille
Musiche 	John Debney
Scenografia 	Clay A. Griffith

[IMG]image[/IMG]

[IMG]image[/IMG]

[IMG]image[/IMG]

[IMG]image[/IMG]

 Eddie Murphy: Il Capitano / Astronave "Dave"
 Elizabeth Banks: Gina Morrison
 Gabrielle Union: Numero 3
 Ed Helms: Numero 2
 Scott Caan: Agente Dooley
 Kevin Hart: Numero 17
 Judah Friedlander: Ingegnere
 Pat Kilbane: Numero 4 / Johnny Dazzles
 Shawn Christian: Tenente Left Arm
 Brandon Molale: Guardia di sicurezza
 Mike O'Malley: Knox
 Marc Blucas: Mark Rhodes

Doppiatori italiani

 Tonino Accolla: Il Capitano / Astronave "Dave"
 Claudia Catani: Gina Morrison
 Domitilla D'Amico: Numero 3
 Angelo Maggi: Numero 2
 Gianfranco Miranda: Agente Dooley
 Edoardo Stoppacciaro: Numero 17
 Luigi Ferraro: Ingegnere
 Mauro Magliozzi: Numero 4 / Johnny Dazzles
 Vladimiro Conti: Knox
 Francesco Bulckaen: Mark Rhodes

[IMG]image[/IMG]

[IMG]image[/IMG]

A causa di una imminente crisi energetica che pregiudicherà un pianeta, chiamato Niende, un gruppo di alieni in miniatura si reca sulla Terra con la loro astronave, costruita in forma 

umanoide per "confondersi" tra la popolazione locale e modellata sulle sembianze del loro capitano con l'intento di recuperare uno strano congegno, mandato da loro per far sparire l'acqua 

dagli oceani del pianeta Terra e recuperare facilmente il sale, sostanza che gli alieni sfruttano sul loro pianeta come fonte d'energia. Un incontro casuale con una madre single e il suo 

figlioletto sconvolgerà l'esito della missione. I piccoli alieni, rimanendo a contatto con le emozioni umane, si ritrovano a riprodurle anche loro. Nel frattempo due agenti di Polizia di 

New York identificano l'astronave con la quale sono atterrati sulla Terra.................

[IMG]image[/IMG]

A spaceship shaped like a human lands face first on Liberty Island. Its crew (of tiny, intelligent, and unemotional beings) is looking for an orb sent from its planet to extract the oceans' 

salt, which will ruin Earth. The orb is in the possession of Josh, the fifth-grade son of a single mom whose car strikes the ambulatory alien spaceship and cripples its power supply. The 

crew has 48 hours to recover the orb, throw it in the Atlantic, and leave Earth. Over the course of two days, the ship's crew experiences chaos and emotion in New York. Do Earth's giants - 

Josh and his mom - have anything to teach these brainy aliens? .............

[IMG]image[/IMG]

[IMG]image[/IMG]



[IMG]image[/IMG]


General
Complete name : Piacere Dave - Meet Dave (2008).avi
Format : AVI
Format/Info : Audio Video Interleave
File size : 1.46 GiB
Duration : 1h 26mn
Overall bit rate : 2 418 Kbps
Writing application : VirtualDubMod 1.5.4.1 (build 2178/release)
Writing library : VirtualDubMod build 2178/release

Video
ID : 0
Format : MPEG-4 Visual
Format profile : Advanced Simple@L5
Format settings, BVOP : Yes
Format settings, QPel : No
Format settings, GMC : No warppoints
Format settings, Matrix : Custom
Codec ID : XVID
Codec ID/Hint : XviD
Duration : 1h 26mn
Bit rate : 1 577 Kbps
Width : 720 pixels
Height : 384 pixels
Display aspect ratio : 1.875
Frame rate : 25.000 fps
Color space : YUV
Chroma subsampling : 4:2:0
Bit depth : 8 bits
Scan type : Progressive
Bits/(Pixel*Frame) : 0.228
Stream size : 978 MiB (65%)
Writing library : XviD 1.2.1 (UTC 2008-12-04)

Audio #1
ID : 1
Format : AC-3
Format/Info : Audio Coding 3
Mode extension : CM (complete main)
Codec ID : 2000
Duration : 1h 26mn
Bit rate mode : Constant
Bit rate : 384 Kbps
Channel(s) : 6 channels
Channel positions : Front: L C R, Side: L R, LFE
Sampling rate : 48.0 KHz
Bit depth : 16 bits
Stream size : 238 MiB (16%)
Alignment : Aligned on interleaves
Interleave, duration : 96 ms (2.40 video frames)
Interleave, preload duration : 96 ms
Language : Italian

Audio #2
ID : 2
Format : AC-3
Format/Info : Audio Coding 3
Mode extension : CM (complete main)
Codec ID : 2000
Duration : 1h 26mn
Bit rate mode : Constant
Bit rate : 448 Kbps
Channel(s) : 6 channels
Channel positions : Front: L C R, Side: L R, LFE
Sampling rate : 48.0 KHz
Bit depth : 16 bits
Stream size : 278 MiB (19%)
Alignment : Aligned on interleaves
Interleave, duration : 96 ms (2.40 video frames)
Interleave, preload duration : 96 ms
Language : English


[IMG]image[/IMG]

[/color]


Piacere Dave - Meet Dave (2008).avi 1.572 GB
Piacere Dave - Meet Dave (2008).idx 109.988 KB
Piacere Dave - Meet Dave (2008).sub 9.515 MB
Gathering some info...

Register and log in Isohunt and see no captcha anymore!

4000 symbols left
Hash FD455E23D72615CCCF523CAB07EE70EE39BE9357