Legion (ru) (Heavy metal group) new faces 2012 [ep] !official re

Size 232.893 MB   0 seeders     Added 2013-02-06 03:53:21

Stream torrent
Starting‥ You need BitLord! Get it from BitLord.com
To download or stream you need BitLord. Visit them at BitLord.com
!official release! http://legion-group.ru
Легион - Новые грани 2012 [ep]

flac+cue

REM GENRE "Heavy Metal"
REM DATE 2012
REM DISCID 3806EA06
REM COMMENT "ExactAudioCopy v1.0b3"
PERFORMER "Легион"
TITLE "Новые грани"
FILE "Легион - Новые грани.flac" WAVE
  TRACK 01 AUDIO
    TITLE "Новые грани"
    PERFORMER "Легион"
    INDEX 01 00:00:00
  TRACK 02 AUDIO
    TITLE "Море любви"
    PERFORMER "Легион"
    INDEX 01 03:49:35
  TRACK 03 AUDIO
    TITLE "В поисках счастья"
    PERFORMER "Легион"
    INDEX 01 10:09:60
  TRACK 04 AUDIO
    TITLE "Золотой цеппелин"
    PERFORMER "Легион"
    INDEX 01 15:41:60
  TRACK 05 AUDIO
    TITLE "За рекой"
    PERFORMER "Легион"
    INDEX 01 20:50:42
  TRACK 06 AUDIO
    TITLE "╨ÿ╨┤╨╕ ╨╖╨░ ╨╝╨╜╨╛╨╣"
    PERFORMER "Легион"
    INDEX 01 25:51:10		
cover/back.jpg 529.934 KB
cover/cover.jpg 279.695 KB
cover/disc.png 2.059 MB
Gathering some info...

Register and log in Isohunt and see no captcha anymore!

4000 symbols left
Hash 7B27C7F06D9F362B936C962B998BCD7661ECC163